Featured TV Shows


Travelers S01E01

Posted By: Tavaz
1080p (FullHD) / WEBRip IMDb
Travelers S01E01

Travelers S01E01
WEBRip | MKV | 1920x1008 | English | H265 @ 2816 kbps | AC-3 @ 448 kbps | 49 min 50 s | 1.14 GiB
Genre: Drama

Hundreds of years from now, the last surviving humans discover the means of sending consciousness back through time, directly into people in the 21st century. These "travelers" assume the lives of seemingly random people, while secretly working as teams to perform missions in order to save humanity from a terrible future.

260b78815e4541858177e5dbdbf7524e.mkv (1.1 GB)



General
Complete name : ./260b78815e4541858177e5dbdbf7524e.mkv
Format : Matroska
Format version : Version 2
File size : 1.14 GiB
Duration : 49 min 50 s
Overall bit rate : 3 266 kb/s
Encoded date : UTC 2017-12-31 21:18:17
Writing application : DVDFab 10.0.6.6
Writing library : libebml v1.3.4 + libmatroska v1.4.5

Video
ID : 1
Format : HEVC
Format/Info : High Efficiency Video Coding
Format profile : Main@L4@High
Codec ID : V_MPEGH/ISO/HEVC
Duration : 49 min 49 s
Bit rate : 2 817 kb/s
Width : 1 920 pixels
Height : 1 008 pixels
Display aspect ratio : 1.905
Frame rate mode : Constant
Frame rate : 23.976 (24000/1001) FPS
Color space : YUV
Chroma subsampling : 4:2:0
Bit depth : 8 bits
Bits/(Pixel*Frame) : 0.061
Stream size : 1 004 MiB (86%)
Default : Yes
Forced : No
Color range : Limited
Color primaries : BT.709
Transfer characteristics : BT.709
Matrix coefficients : BT.709

Audio
ID : 2
Format : AC-3
Format/Info : Audio Coding 3
Format settings, Endianness : Big
Codec ID : A_AC3
Duration : 49 min 50 s
Bit rate mode : Constant
Bit rate : 448 kb/s
Channel(s) : 6 channels
Channel positions : Front: L C R, Side: L R, LFE
Sampling rate : 48.0 kHz
Frame rate : 31.250 FPS (1536 SPF)
Bit depth : 16 bits
Compression mode : Lossy
Stream size : 160 MiB (14%)
Language : English
Service kind : Complete Main
Default : Yes
Forced : No





Travelers S01E01


Travelers S01E01


Travelers S01E01


Travelers S01E01


Travelers S01E01

All episodes