Featured TV Shows


Travelers S01E02

Posted By: Tavaz
1080p (FullHD) / WEBRip IMDb
Travelers S01E02

Travelers S01E02
WEBRip | MKV | 1920x960 | English | H265 @ 2637 kbps | AC-3 @ 448 kbps | 46 min 13 s | 1 021 MiB
Genre: Drama

Hundreds of years from now, the last surviving humans discover the means of sending consciousness back through time, directly into people in the 21st century. These "travelers" assume the lives of seemingly random people, while secretly working as teams to perform missions in order to save humanity from a terrible future.

f89cf4002d134b79ad240b3b69f77735.mkv (1020.7 MB)



General
Complete name : ./f89cf4002d134b79ad240b3b69f77735.mkv
Format : Matroska
Format version : Version 2
File size : 1 021 MiB
Duration : 46 min 13 s
Overall bit rate : 3 087 kb/s
Encoded date : UTC 2017-12-31 21:21:02
Writing application : DVDFab 10.0.6.6
Writing library : libebml v1.3.4 + libmatroska v1.4.5

Video
ID : 1
Format : HEVC
Format/Info : High Efficiency Video Coding
Format profile : Main@L4@High
Codec ID : V_MPEGH/ISO/HEVC
Duration : 46 min 12 s
Bit rate : 2 638 kb/s
Width : 1 920 pixels
Height : 960 pixels
Display aspect ratio : 2.000
Frame rate mode : Constant
Frame rate : 23.976 (24000/1001) FPS
Color space : YUV
Chroma subsampling : 4:2:0
Bit depth : 8 bits
Bits/(Pixel*Frame) : 0.060
Stream size : 872 MiB (85%)
Default : Yes
Forced : No
Color range : Limited
Color primaries : BT.709
Transfer characteristics : BT.709
Matrix coefficients : BT.709

Audio
ID : 2
Format : AC-3
Format/Info : Audio Coding 3
Format settings, Endianness : Big
Codec ID : A_AC3
Duration : 46 min 13 s
Bit rate mode : Constant
Bit rate : 448 kb/s
Channel(s) : 6 channels
Channel positions : Front: L C R, Side: L R, LFE
Sampling rate : 48.0 kHz
Frame rate : 31.250 FPS (1536 SPF)
Bit depth : 16 bits
Compression mode : Lossy
Stream size : 148 MiB (15%)
Language : English
Service kind : Complete Main
Default : Yes
Forced : No





Travelers S01E02


Travelers S01E02


Travelers S01E02


Travelers S01E02


Travelers S01E02

All episodes