Featured TV Shows


Travelers S01E02

Posted By: Tavaz
720p (HD) / BDRip IMDb
Travelers S01E02

Travelers S01E02
BDRip | MKV | 1280x720 | English | H264 @ 6120 kbps | AC-3 @ 640 kbps | 46 min 18 s | 2.19 GiB
Genre: Drama

Hundreds of years from now, the last surviving humans discover the means of sending consciousness back through time, directly into people in the 21st century. These "travelers" assume the lives of seemingly random people, while secretly working as teams to perform missions in order to save humanity from a terrible future.

32296472afa64fecb77d077b071971a2.mkv (2.2 GB)



General
Complete name : ./32296472afa64fecb77d077b071971a2.mkv
Format : Matroska
Format version : Version 4 / Version 2
File size : 2.19 GiB
Duration : 46 min 18 s
Overall bit rate : 6 756 kb/s
Encoded date : UTC 2018-05-24 00:01:02
Writing application : mkvmerge v23.0.0 (master: 2421163 / deflate: e4384ad) [X86_64]
Writing library : libebml v1.3.6 + libmatroska v1.4.9

Video
ID : 1
Format : AVC
Format/Info : Advanced Video Codec
Format profile : High@L4.1
Format settings : CABAC / 9 Ref Frames
Format settings, CABAC : Yes
Format settings, RefFrames : 9 frames
Codec ID : V_MPEG4/ISO/AVC
Duration : 46 min 18 s
Bit rate : 6 120 kb/s
Width : 1 280 pixels
Height : 720 pixels
Display aspect ratio : 16:9
Frame rate mode : Constant
Frame rate : 23.976 (24000/1001) FPS
Color space : YUV
Chroma subsampling : 4:2:0
Bit depth : 8 bits
Scan type : Progressive
Bits/(Pixel*Frame) : 0.277
Stream size : 1.93 GiB (89%)
Writing library : x264 core 155 r2901+1 (master: 7d0ff22 / tmod: cd02c8e) [X86_64]
Encoding settings : cabac=1 / ref=9 / deblock=1:-3:-3 / analyse=0x3:0x113 / me=umh / subme=10 / psy=1 / psy_rd=1.05:0.10 / mixed_ref=1 / me_range=48 / chroma_me=1 / trellis=2 / 8x8dct=1 / cqm=0 / deadzone=21,11 / fast_pskip=0 / chroma_qp_offset=-3 / threads=12 / lookahead_threads=2 / sliced_threads=0 / nr=0 / decimate=0 / interlaced=0 / bluray_compat=0 / constrained_intra=0 / bframes=9 / b_pyramid=2 / b_adapt=2 / b_bias=0 / direct=3 / weightb=1 / open_gop=0 / weightp=2 / keyint=250 / keyint_min=23 / scenecut=40 / intra_refresh=0 / rc_lookahead=60 / rc=2pass / mbtree=0 / bitrate=6120 / ratetol=1.0 / qcomp=0.60 / qpmin=0 / qpmax=69 / qpstep=4 / cplxblur=20.0 / qblur=0.5 / vbv_maxrate=50000 / vbv_bufsize=62500 / nal_hrd=none / filler=0 / ip_ratio=1.40 / pb_ratio=1.30 / aq=3:0.85
Language : English
Default : Yes
Forced : No

Audio
ID : 2
Format : AC-3
Format/Info : Audio Coding 3
Format settings, Endianness : Big
Codec ID : A_AC3
Duration : 46 min 18 s
Bit rate mode : Constant
Bit rate : 640 kb/s
Channel(s) : 6 channels
Channel positions : Front: L C R, Side: L R, LFE
Sampling rate : 48.0 kHz
Frame rate : 31.250 FPS (1536 SPF)
Bit depth : 16 bits
Compression mode : Lossy
Stream size : 212 MiB (9%)
Language : English
Service kind : Complete Main
Default : Yes
Forced : No

Menu
00:00:00.000 : en:00:00:00.000
00:02:20.891 : en:00:02:20.891
00:08:54.826 : en:00:08:54.826
00:15:22.630 : en:00:15:22.630
00:22:13.791 : en:00:22:13.791
00:30:36.793 : en:00:30:36.793
00:40:26.716 : en:00:40:26.716
00:45:31.604 : en:00:45:31.604





Travelers S01E02


Travelers S01E02


Travelers S01E02


Travelers S01E02


Travelers S01E02

All episodes