Featured TV Shows


Trial & Error S01E03

Posted By: Tavaz
1080p (FullHD) / WEB-DL IMDb
Trial & Error S01E03

Trial & Error S01E03
WEB-DL | MKV | 1920x1080 | English | H264 @ 8883 kbps | E-AC-3 @ 640 kbps | 21 min 33 s | 1.43 GiB
Genre: Comedy

A bright-eyed New York lawyer takes his first big case defending an eccentric poetry professor accused of murdering his wife.

ab78bf700cc848749ee6ab4bba01417a.mkv (1.4 GB)



General
Unique ID : 209914667957848391540341838492717029347 (0x9DEC182FC016718692FA3E65BE4417E3)
Complete name : ./ab78bf700cc848749ee6ab4bba01417a.mkv
Format : Matroska
Format version : Version 4 / Version 2
File size : 1.43 GiB
Duration : 21 min 33 s
Overall bit rate mode : Variable
Overall bit rate : 9 526 kb/s
Encoded date : UTC 2017-07-26 13:58:08
Writing application : mkvmerge v11.0.0 ('Alive') 64bit
Writing library : libebml v1.3.4 + libmatroska v1.4.5

Video
ID : 1
Format : AVC
Format/Info : Advanced Video Codec
Format profile : High@L4
Format settings : CABAC / 4 Ref Frames
Format settings, CABAC : Yes
Format settings, RefFrames : 4 frames
Codec ID : V_MPEG4/ISO/AVC
Duration : 21 min 33 s
Bit rate mode : Variable
Bit rate : 8 884 kb/s
Maximum bit rate : 15.0 Mb/s
Width : 1 920 pixels
Height : 1 080 pixels
Display aspect ratio : 16:9
Frame rate mode : Constant
Frame rate : 23.976 (24000/1001) FPS
Color space : YUV
Chroma subsampling : 4:2:0
Bit depth : 8 bits
Scan type : Progressive
Bits/(Pixel*Frame) : 0.179
Stream size : 1.34 GiB (93%)
Default : Yes
Forced : No
Color range : Limited
Color primaries : BT.709
Transfer characteristics : BT.709
Matrix coefficients : BT.709

Audio
ID : 2
Format : E-AC-3
Format/Info : Enhanced Audio Coding 3
Format settings, Endianness : Big
Codec ID : A_EAC3
Duration : 21 min 33 s
Bit rate mode : Constant
Bit rate : 640 kb/s
Channel(s) : 6 channels
Channel positions : Front: L C R, Side: L R, LFE
Sampling rate : 48.0 kHz
Frame rate : 187.500 FPS (256 SPF)
Compression mode : Lossy
Stream size : 98.7 MiB (7%)
Service kind : Complete Main
Default : Yes
Forced : No

Text
ID : 3
Format : UTF-8
Codec ID : S_TEXT/UTF8
Codec ID/Info : UTF-8 Plain Text
Duration : 21 min 21 s
Bit rate : 106 b/s
Count of elements : 523
Stream size : 16.7 KiB (0%)
Title : English [CC]
Default : No
Forced : No





Trial & Error S01E03


Trial & Error S01E03


Trial & Error S01E03


Trial & Error S01E03


Trial & Error S01E03

All episodes