Featured TV Shows


Trolls: The Beat Goes On! S01E05

Posted By: Tavaz
1080p (FullHD) / WEB-DL IMDb
Trolls: The Beat Goes On! S01E05

Trolls: The Beat Goes On! S01E05
WEB-DL | MKV | 1920x1080 | English | H264 @ 3830 kbps | AC-3 @ 384 kbps | 23 min 35 s | 701 MiB
Subtitles: Swedish, Danish, Dutch, Finnish, Portuguese, English, French, Norwegian, Spanish
Genre: Animation, Comedy


Queen Poppy tries to keep Troll Village's peace with the Bergens by inviting them to parties, playing their sports and preventing crime.

Trolls.The.Beat.Goes.On.S01E05.Cloudy.with.a.Chance.of.Hugs.Creek.Week.1080p.Netflix.WEB-DL.DD5.1.H.264-FoxKID.mkv (701.1 MB)



General
Unique ID : 183338755340143217376638665186816466077 (0x89EDC287FED9571DB17EFE51E61A9C9D)
Complete name : ./Trolls.The.Beat.Goes.On.S01E05.Cloudy.with.a.Chance.of.Hugs.Creek.Week.1080p.Netflix.WEB-DL.DD5.1.H.264-FoxKID.mkv
Format : Matroska
Format version : Version 4 / Version 2
File size : 701 MiB
Duration : 23 min 35 s
Overall bit rate mode : Variable
Overall bit rate : 4 154 kb/s
Encoded date : UTC 2018-01-19 20:25:41
Writing application : mkvmerge v13.0.0 ('The Juggler') 64bit
Writing library : libebml v1.3.4 + libmatroska v1.4.5

Video
ID : 1
Format : AVC
Format/Info : Advanced Video Codec
Format profile : Main@L4
Format settings : CABAC / 3 Ref Frames
Format settings, CABAC : Yes
Format settings, RefFrames : 3 frames
Codec ID : V_MPEG4/ISO/AVC
Duration : 23 min 35 s
Bit rate mode : Variable
Bit rate : 3 830 kb/s
Maximum bit rate : 5 745 kb/s
Width : 1 920 pixels
Height : 1 080 pixels
Display aspect ratio : 16:9
Frame rate mode : Constant
Frame rate : 23.976 (24000/1001) FPS
Color space : YUV
Chroma subsampling : 4:2:0
Bit depth : 8 bits
Scan type : Progressive
Bits/(Pixel*Frame) : 0.077
Stream size : 636 MiB (91%)
Writing library : x264 core 148 r2714 2daf636
Encoding settings : cabac=1 / ref=3 / deblock=1:0:0 / analyse=0x1:0x111 / me=umh / subme=10 / psy=1 / psy_rd=1.00:0.00 / mixed_ref=1 / me_range=24 / chroma_me=1 / trellis=2 / 8x8dct=0 / cqm=0 / deadzone=21,11 / fast_pskip=1 / chroma_qp_offset=-2 / threads=8 / lookahead_threads=1 / sliced_threads=0 / nr=0 / decimate=1 / interlaced=0 / bluray_compat=0 / stitchable=1 / constrained_intra=0 / bframes=2 / b_pyramid=0 / b_adapt=2 / b_bias=0 / direct=3 / weightb=1 / open_gop=0 / weightp=2 / keyint=48 / keyint_min=25 / scenecut=0 / intra_refresh=0 / rc_lookahead=48 / rc=2pass / mbtree=1 / bitrate=3830 / ratetol=1.0 / qcomp=0.50 / qpmin=6 / qpmax=51 / qpstep=4 / cplxblur=20.0 / qblur=0.5 / vbv_maxrate=5745 / vbv_bufsize=7660 / nal_hrd=vbr / filler=0 / ip_ratio=1.40 / aq=1:1.00
Default : Yes
Forced : No

Audio
ID : 2
Format : AC-3
Format/Info : Audio Coding 3
Format settings, Endianness : Big
Codec ID : A_AC3
Duration : 23 min 35 s
Bit rate mode : Constant
Bit rate : 384 kb/s
Channel(s) : 6 channels
Channel positions : Front: L C R, Side: L R, LFE
Sampling rate : 48.0 kHz
Frame rate : 31.250 FPS (1536 SPF)
Bit depth : 16 bits
Compression mode : Lossy
Stream size : 64.8 MiB (9%)
Language : English
Service kind : Complete Main
Default : Yes
Forced : No

Text #1
ID : 3
Format : UTF-8
Codec ID : S_TEXT/UTF8
Codec ID/Info : UTF-8 Plain Text
Duration : 22 min 53 s
Bit rate : 83 b/s
Count of elements : 481
Stream size : 14.1 KiB (0%)
Language : English
Default : No
Forced : No

Text #2
ID : 4
Format : UTF-8
Codec ID : S_TEXT/UTF8
Codec ID/Info : UTF-8 Plain Text
Duration : 22 min 53 s
Bit rate : 96 b/s
Count of elements : 557
Stream size : 16.2 KiB (0%)
Title : SDH
Language : English
Default : Yes
Forced : No

Text #3
ID : 5
Format : UTF-8
Codec ID : S_TEXT/UTF8
Codec ID/Info : UTF-8 Plain Text
Duration : 23 min 4 s
Bit rate : 62 b/s
Count of elements : 390
Stream size : 10.6 KiB (0%)
Language : Danish
Default : No
Forced : No

Text #4
ID : 6
Format : UTF-8
Codec ID : S_TEXT/UTF8
Codec ID/Info : UTF-8 Plain Text
Duration : 23 min 4 s
Bit rate : 66 b/s
Count of elements : 401
Stream size : 11.3 KiB (0%)
Language : Spanish
Default : No
Forced : No

Text #5
ID : 7
Format : UTF-8
Codec ID : S_TEXT/UTF8
Codec ID/Info : UTF-8 Plain Text
Duration : 23 min 4 s
Bit rate : 74 b/s
Count of elements : 387
Stream size : 12.6 KiB (0%)
Language : Finnish
Default : No
Forced : No

Text #6
ID : 8
Format : UTF-8
Codec ID : S_TEXT/UTF8
Codec ID/Info : UTF-8 Plain Text
Duration : 23 min 4 s
Bit rate : 69 b/s
Count of elements : 393
Stream size : 11.7 KiB (0%)
Language : French
Default : No
Forced : No

Text #7
ID : 9
Format : UTF-8
Codec ID : S_TEXT/UTF8
Codec ID/Info : UTF-8 Plain Text
Duration : 23 min 4 s
Bit rate : 71 b/s
Count of elements : 377
Stream size : 12.0 KiB (0%)
Language : Norwegian
Default : No
Forced : No

Text #8
ID : 10
Format : UTF-8
Codec ID : S_TEXT/UTF8
Codec ID/Info : UTF-8 Plain Text
Duration : 23 min 4 s
Bit rate : 65 b/s
Count of elements : 373
Stream size : 11.1 KiB (0%)
Language : Dutch
Default : No
Forced : No

Text #9
ID : 11
Format : UTF-8
Codec ID : S_TEXT/UTF8
Codec ID/Info : UTF-8 Plain Text
Duration : 23 min 4 s
Bit rate : 70 b/s
Count of elements : 406
Stream size : 11.9 KiB (0%)
Title : Brazilian
Language : Portuguese
Default : No
Forced : No

Text #10
ID : 12
Format : UTF-8
Codec ID : S_TEXT/UTF8
Codec ID/Info : UTF-8 Plain Text
Duration : 23 min 4 s
Bit rate : 70 b/s
Count of elements : 372
Stream size : 12.0 KiB (0%)
Language : Swedish
Default : No
Forced : No





Trolls: The Beat Goes On! S01E05


Trolls: The Beat Goes On! S01E05


Trolls: The Beat Goes On! S01E05


Trolls: The Beat Goes On! S01E05


Trolls: The Beat Goes On! S01E05

All episodes