Index
# A B C D E F G H I J K L M N O P Q R S T U V W Y Z
Tags
Language
Tags

Featured TV Shows


Turner & Hooch S01E04

Posted By: Tavaz
1080p (FullHD) / WEBRip IMDb
Turner & Hooch S01E04

Turner & Hooch S01E04
WEBRip | MKV | 1920x1080 | English | H264 @ 6355 kbps | E-AC-3 @ 768 kbps | 46 min 53 s | 2.33 GiB
Subtitles: 中文, Français, Deutsch, Suomi, Español, Polski, Italiano, Nederlands, Svenska, Dansk, English, 한국어, Português
Genre: Action, Comedy, Crime, Thriller, Family


Scott Turner has 3 days left in the local police department before he moves to a bigger city to get some 'real' cases—not just misdemeanors. When Amos Reed is murdered, Scott sets himself on the case, but the closest thing to a witness to the murder is Reed's dog, Hooch, which Scott has to take care of—to avoid Hooch being 'put to sleep'.

425a5559305e4a3cbc6bfe6f2858d0d3.mkv (2.3 GB)



General
Unique ID : 33449792142087982273125315659486173687 (0x192A3214F047C9F5DC8FA1618ADB99F7)
Complete name : ./425a5559305e4a3cbc6bfe6f2858d0d3.mkv
Format : Matroska
Format version : Version 4 / Version 2
File size : 2.33 GiB
Duration : 46 min 53 s
Overall bit rate mode : Variable
Overall bit rate : 7 129 kb/s
Writing application : mkvmerge v59.0.0 ('Shining Star') 64-bit
Writing library : libebml v1.4.2 + libmatroska v1.6.4

Video
ID : 1
Format : AVC
Format/Info : Advanced Video Codec
Format profile : High@L4
Format settings : CABAC / 4 Ref Frames
Format settings, CABAC : Yes
Format settings, RefFrames : 4 frames
Codec ID : V_MPEG4/ISO/AVC
Duration : 46 min 53 s
Bit rate mode : Variable
Bit rate : 6 356 kb/s
Maximum bit rate : 12.7 Mb/s
Width : 1 920 pixels
Height : 1 080 pixels
Display aspect ratio : 16:9
Frame rate mode : Constant
Frame rate : 23.976 (24000/1001) FPS
Color space : YUV
Chroma subsampling : 4:2:0
Bit depth : 8 bits
Scan type : Progressive
Bits/(Pixel*Frame) : 0.128
Stream size : 2.08 GiB (89%)
Default : Yes
Forced : No
Color range : Limited
Color primaries : BT.709
Transfer characteristics : BT.709
Matrix coefficients : BT.709

Audio
ID : 2
Format : E-AC-3
Format/Info : Enhanced Audio Coding 3
Format profile : E-AC-3+Atmos / E-AC-3
Format settings, Endianness : Big
Codec ID : A_EAC3
Duration : 46 min 53 s
Bit rate mode : Constant
Bit rate : 768 kb/s
Channel(s) : 15 objects / 6 channels
Channel positions : 15 objects / Front: L C R, Side: L R, LFE
Sampling rate : 48.0 kHz
Frame rate : 187.500 FPS (256 SPF)
Compression mode : Lossy
Stream size : 258 MiB (11%)
Language : English
Service kind : Complete Main
Default : Yes
Forced : No

Text #1
ID : 3
Format : UTF-8
Codec ID : S_TEXT/UTF8
Codec ID/Info : UTF-8 Plain Text
Duration : 44 min 12 s
Bit rate : 102 b/s
Count of elements : 848
Stream size : 33.1 KiB (0%)
Language : English
Default : No
Forced : No

Text #2
ID : 4
Format : UTF-8
Codec ID : S_TEXT/UTF8
Codec ID/Info : UTF-8 Plain Text
Duration : 44 min 19 s
Bit rate : 106 b/s
Count of elements : 904
Stream size : 34.5 KiB (0%)
Title : SDH
Language : English
Default : No
Forced : No

Text #3
ID : 5
Format : UTF-8
Codec ID : S_TEXT/UTF8
Codec ID/Info : UTF-8 Plain Text
Duration : 45 min 1 s
Bit rate : 94 b/s
Count of elements : 834
Stream size : 31.2 KiB (0%)
Language : Danish
Default : No
Forced : No

Text #4
ID : 6
Format : UTF-8
Codec ID : S_TEXT/UTF8
Codec ID/Info : UTF-8 Plain Text
Duration : 45 min 1 s
Bit rate : 91 b/s
Count of elements : 801
Stream size : 30.3 KiB (0%)
Language : German
Default : No
Forced : No

Text #5
ID : 7
Format : UTF-8
Codec ID : S_TEXT/UTF8
Codec ID/Info : UTF-8 Plain Text
Duration : 45 min 1 s
Bit rate : 94 b/s
Count of elements : 832
Stream size : 31.3 KiB (0%)
Title : Español (Latinoamericano)
Language : Spanish
Default : No
Forced : No

Text #6
ID : 8
Format : UTF-8
Codec ID : S_TEXT/UTF8
Codec ID/Info : UTF-8 Plain Text
Duration : 45 min 1 s
Bit rate : 90 b/s
Count of elements : 799
Stream size : 29.8 KiB (0%)
Title : Español
Language : Spanish
Default : No
Forced : No

Text #7
ID : 9
Format : UTF-8
Codec ID : S_TEXT/UTF8
Codec ID/Info : UTF-8 Plain Text
Duration : 45 min 1 s
Bit rate : 83 b/s
Count of elements : 718
Stream size : 27.7 KiB (0%)
Language : Finnish
Default : No
Forced : No

Text #8
ID : 10
Format : UTF-8
Codec ID : S_TEXT/UTF8
Codec ID/Info : UTF-8 Plain Text
Duration : 45 min 1 s
Bit rate : 90 b/s
Count of elements : 836
Stream size : 29.8 KiB (0%)
Language : French
Default : No
Forced : No

Text #9
ID : 11
Format : UTF-8
Codec ID : S_TEXT/UTF8
Codec ID/Info : UTF-8 Plain Text
Duration : 45 min 1 s
Bit rate : 87 b/s
Count of elements : 792
Stream size : 29.0 KiB (0%)
Language : Italian
Default : No
Forced : No

Text #10
ID : 12
Format : UTF-8
Codec ID : S_TEXT/UTF8
Codec ID/Info : UTF-8 Plain Text
Duration : 45 min 1 s
Bit rate : 109 b/s
Count of elements : 841
Stream size : 36.0 KiB (0%)
Language : Korean
Default : No
Forced : No

Text #11
ID : 13
Format : UTF-8
Codec ID : S_TEXT/UTF8
Codec ID/Info : UTF-8 Plain Text
Duration : 45 min 1 s
Bit rate : 79 b/s
Count of elements : 632
Stream size : 26.3 KiB (0%)
Language : Dutch
Default : No
Forced : No

Text #12
ID : 14
Format : UTF-8
Codec ID : S_TEXT/UTF8
Codec ID/Info : UTF-8 Plain Text
Duration : 45 min 1 s
Bit rate : 78 b/s
Count of elements : 775
Stream size : 26.0 KiB (0%)
Language : Norwegian
Default : No
Forced : No

Text #13
ID : 15
Format : UTF-8
Codec ID : S_TEXT/UTF8
Codec ID/Info : UTF-8 Plain Text
Duration : 45 min 1 s
Bit rate : 80 b/s
Count of elements : 822
Stream size : 26.6 KiB (0%)
Language : Polish
Default : No
Forced : No

Text #14
ID : 16
Format : UTF-8
Codec ID : S_TEXT/UTF8
Codec ID/Info : UTF-8 Plain Text
Duration : 45 min 1 s
Bit rate : 89 b/s
Count of elements : 751
Stream size : 29.4 KiB (0%)
Title : Português (Brasil)
Language : Portuguese
Default : No
Forced : No

Text #15
ID : 17
Format : UTF-8
Codec ID : S_TEXT/UTF8
Codec ID/Info : UTF-8 Plain Text
Duration : 45 min 1 s
Bit rate : 96 b/s
Count of elements : 836
Stream size : 31.9 KiB (0%)
Title : Português
Language : Portuguese
Default : No
Forced : No

Text #16
ID : 18
Format : UTF-8
Codec ID : S_TEXT/UTF8
Codec ID/Info : UTF-8 Plain Text
Duration : 45 min 1 s
Bit rate : 87 b/s
Count of elements : 837
Stream size : 28.9 KiB (0%)
Language : Swedish
Default : No
Forced : No

Text #17
ID : 19
Format : UTF-8
Codec ID : S_TEXT/UTF8
Codec ID/Info : UTF-8 Plain Text
Duration : 45 min 1 s
Bit rate : 85 b/s
Count of elements : 841
Stream size : 28.2 KiB (0%)
Title : Chinese (Hong Kong)
Language : Chinese
Default : No
Forced : No

Text #18
ID : 20
Format : UTF-8
Codec ID : S_TEXT/UTF8
Codec ID/Info : UTF-8 Plain Text
Duration : 45 min 1 s
Bit rate : 86 b/s
Count of elements : 841
Stream size : 28.6 KiB (0%)
Title : Chinese (Simplified)
Language : Chinese
Default : No
Forced : No

Menu
00:00:04.004 : Recap start
00:00:41.333 : Recap end
00:01:47.733 : Intro start
00:02:13.800 : Intro end
00:44:39.429 : Credits





Turner & Hooch S01E04


Turner & Hooch S01E04


Turner & Hooch S01E04


Turner & Hooch S01E04


Turner & Hooch S01E04

All episodes