Index
# A B C D E F G H I J K L M N O P Q R S T U V W Y Z
Tags
Language
Tags

Featured TV Shows


Turner & Hooch S01E07

Posted By: Tavaz
1080p (FullHD) / WEBRip IMDb
Turner & Hooch S01E07

Turner & Hooch S01E07
WEBRip | MKV | 1920x1080 | English | H264 @ 6292 kbps | E-AC-3 @ 768 kbps | 48 min 45 s | 2.41 GiB
Subtitles: 中文, Français, Deutsch, Suomi, Español, Polski, Italiano, Nederlands, Svenska, Dansk, English, 日本語, 한국어, Português
Genre: Action, Comedy, Crime, Thriller, Family


Scott Turner has 3 days left in the local police department before he moves to a bigger city to get some 'real' cases—not just misdemeanors. When Amos Reed is murdered, Scott sets himself on the case, but the closest thing to a witness to the murder is Reed's dog, Hooch, which Scott has to take care of—to avoid Hooch being 'put to sleep'.

6ad1fd48d12641e8a09321ec8262b61c.mkv (2.4 GB)



General
Unique ID : 186137204831925631587368439229532070510 (0x8C08B8BE6264A06D751ED328593FE26E)
Complete name : ./6ad1fd48d12641e8a09321ec8262b61c.mkv
Format : Matroska
Format version : Version 4 / Version 2
File size : 2.41 GiB
Duration : 48 min 45 s
Overall bit rate mode : Variable
Overall bit rate : 7 066 kb/s
Encoded date : UTC 2021-09-01 07:00:40
Writing application : mkvmerge v60.0.0 ('Are We Copies?') 64-bit
Writing library : libebml v1.4.2 + libmatroska v1.6.4

Video
ID : 1
Format : AVC
Format/Info : Advanced Video Codec
Format profile : High@L4
Format settings : CABAC / 4 Ref Frames
Format settings, CABAC : Yes
Format settings, RefFrames : 4 frames
Codec ID : V_MPEG4/ISO/AVC
Duration : 48 min 45 s
Bit rate mode : Variable
Bit rate : 6 293 kb/s
Maximum bit rate : 12.7 Mb/s
Width : 1 920 pixels
Height : 1 080 pixels
Display aspect ratio : 16:9
Frame rate mode : Constant
Frame rate : 23.976 (24000/1001) FPS
Color space : YUV
Chroma subsampling : 4:2:0
Bit depth : 8 bits
Scan type : Progressive
Bits/(Pixel*Frame) : 0.127
Stream size : 2.14 GiB (89%)
Default : Yes
Forced : No
Color range : Limited
Color primaries : BT.709
Transfer characteristics : BT.709
Matrix coefficients : BT.709

Audio
ID : 2
Format : E-AC-3
Format/Info : Enhanced Audio Coding 3
Format profile : E-AC-3+Atmos / E-AC-3
Format settings, Endianness : Big
Codec ID : A_EAC3
Duration : 48 min 45 s
Bit rate mode : Constant
Bit rate : 768 kb/s
Channel(s) : 15 objects / 6 channels
Channel positions : 15 objects / Front: L C R, Side: L R, LFE
Sampling rate : 48.0 kHz
Frame rate : 187.500 FPS (256 SPF)
Compression mode : Lossy
Stream size : 268 MiB (11%)
Title : English
Language : English
Service kind : Complete Main
Default : Yes
Forced : No

Text #1
ID : 3
Format : UTF-8
Codec ID : S_TEXT/UTF8
Codec ID/Info : UTF-8 Plain Text
Duration : 48 min 34 s
Bit rate : 81 b/s
Count of elements : 900
Stream size : 28.9 KiB (0%)
Title : Chinese Simplified
Language : Chinese
Default : No
Forced : No

Text #2
ID : 4
Format : UTF-8
Codec ID : S_TEXT/UTF8
Codec ID/Info : UTF-8 Plain Text
Duration : 48 min 34 s
Bit rate : 91 b/s
Count of elements : 895
Stream size : 32.6 KiB (0%)
Title : Danish
Language : Danish
Default : No
Forced : No

Text #3
ID : 5
Format : UTF-8
Codec ID : S_TEXT/UTF8
Codec ID/Info : UTF-8 Plain Text
Duration : 48 min 34 s
Bit rate : 76 b/s
Count of elements : 652
Stream size : 27.2 KiB (0%)
Title : Dutch
Language : Dutch
Default : No
Forced : No

Text #4
ID : 6
Format : UTF-8
Codec ID : S_TEXT/UTF8
Codec ID/Info : UTF-8 Plain Text
Duration : 47 min 47 s
Bit rate : 105 b/s
Count of elements : 977
Stream size : 36.8 KiB (0%)
Title : English SDH
Language : English
Default : No
Forced : No

Text #5
ID : 7
Format : UTF-8
Codec ID : S_TEXT/UTF8
Codec ID/Info : UTF-8 Plain Text
Duration : 47 min 47 s
Bit rate : 98 b/s
Count of elements : 899
Stream size : 34.6 KiB (0%)
Title : English
Language : English
Default : No
Forced : No

Text #6
ID : 8
Format : UTF-8
Codec ID : S_TEXT/UTF8
Codec ID/Info : UTF-8 Plain Text
Duration : 48 min 34 s
Bit rate : 77 b/s
Count of elements : 769
Stream size : 27.6 KiB (0%)
Title : Finnish
Language : Finnish
Default : No
Forced : No

Text #7
ID : 9
Format : UTF-8
Codec ID : S_TEXT/UTF8
Codec ID/Info : UTF-8 Plain Text
Duration : 48 min 34 s
Bit rate : 86 b/s
Count of elements : 893
Stream size : 30.8 KiB (0%)
Title : French
Language : French
Default : No
Forced : No

Text #8
ID : 10
Format : UTF-8
Codec ID : S_TEXT/UTF8
Codec ID/Info : UTF-8 Plain Text
Duration : 48 min 34 s
Bit rate : 90 b/s
Count of elements : 866
Stream size : 32.2 KiB (0%)
Title : German
Language : German
Default : No
Forced : No

Text #9
ID : 11
Format : UTF-8
Codec ID : S_TEXT/UTF8
Codec ID/Info : UTF-8 Plain Text
Duration : 48 min 34 s
Bit rate : 83 b/s
Count of elements : 854
Stream size : 29.8 KiB (0%)
Title : Italian
Language : Italian
Default : No
Forced : No

Text #10
ID : 12
Format : UTF-8
Codec ID : S_TEXT/UTF8
Codec ID/Info : UTF-8 Plain Text
Duration : 48 min 34 s
Bit rate : 69 b/s
Count of elements : 847
Stream size : 24.7 KiB (0%)
Title : Japanese
Language : Japanese
Default : No
Forced : No

Text #11
ID : 13
Format : UTF-8
Codec ID : S_TEXT/UTF8
Codec ID/Info : UTF-8 Plain Text
Duration : 48 min 34 s
Bit rate : 103 b/s
Count of elements : 900
Stream size : 36.9 KiB (0%)
Title : Korean
Language : Korean
Default : No
Forced : No

Text #12
ID : 14
Format : UTF-8
Codec ID : S_TEXT/UTF8
Codec ID/Info : UTF-8 Plain Text
Duration : 48 min 34 s
Bit rate : 77 b/s
Count of elements : 851
Stream size : 27.5 KiB (0%)
Title : Norwegian
Language : Norwegian
Default : No
Forced : No

Text #13
ID : 15
Format : UTF-8
Codec ID : S_TEXT/UTF8
Codec ID/Info : UTF-8 Plain Text
Duration : 48 min 34 s
Bit rate : 75 b/s
Count of elements : 879
Stream size : 26.8 KiB (0%)
Title : Polish
Language : Polish
Default : No
Forced : No

Text #14
ID : 16
Format : UTF-8
Codec ID : S_TEXT/UTF8
Codec ID/Info : UTF-8 Plain Text
Duration : 48 min 34 s
Bit rate : 86 b/s
Count of elements : 822
Stream size : 30.6 KiB (0%)
Title : Brazilian Portuguese
Language : Portuguese
Default : No
Forced : No

Text #15
ID : 17
Format : UTF-8
Codec ID : S_TEXT/UTF8
Codec ID/Info : UTF-8 Plain Text
Duration : 48 min 34 s
Bit rate : 93 b/s
Count of elements : 895
Stream size : 33.1 KiB (0%)
Title : Portuguese
Language : Portuguese
Default : No
Forced : No

Text #16
ID : 18
Format : UTF-8
Codec ID : S_TEXT/UTF8
Codec ID/Info : UTF-8 Plain Text
Duration : 48 min 34 s
Bit rate : 86 b/s
Count of elements : 872
Stream size : 30.9 KiB (0%)
Title : European Spanish
Language : Spanish
Default : No
Forced : No

Text #17
ID : 19
Format : UTF-8
Codec ID : S_TEXT/UTF8
Codec ID/Info : UTF-8 Plain Text
Duration : 48 min 34 s
Bit rate : 93 b/s
Count of elements : 890
Stream size : 33.3 KiB (0%)
Title : Spanish
Language : Spanish
Default : No
Forced : No

Text #18
ID : 20
Format : UTF-8
Codec ID : S_TEXT/UTF8
Codec ID/Info : UTF-8 Plain Text
Duration : 48 min 34 s
Bit rate : 84 b/s
Count of elements : 896
Stream size : 30.0 KiB (0%)
Title : Swedish
Language : Swedish
Default : No
Forced : No

Text #19
ID : 21
Format : UTF-8
Codec ID : S_TEXT/UTF8
Codec ID/Info : UTF-8 Plain Text
Duration : 48 min 34 s
Bit rate : 91 b/s
Count of elements : 900
Stream size : 32.5 KiB (0%)
Title : Mandarin (Guoyu)
Language : Chinese
Default : No
Forced : No





Turner & Hooch S01E07


Turner & Hooch S01E07


Turner & Hooch S01E07


Turner & Hooch S01E07


Turner & Hooch S01E07

All episodes