Featured TV Shows


Twin Peaks S03E18

Posted By: Tavaz
SD / HDTV IMDb
Twin Peaks S03E18

Twin Peaks S03E18
HDTV | AVI | 624x350 | MP4V-ES @ 1166 kbps | MPEG Audio @ 192 kbps | 57 min 5 s | 559 MiB
Genre: Drama, Mystery, Thriller

The body of Laura Palmer is washed up on a beach near the small Washington state town of Twin Peaks. FBI Special Agent Dale Cooper is called in to investigate her strange demise only to uncover a web of mystery that ultimately leads him deep into the heart of the surrounding woodland and his very own soul.

f4eebff58adf4bd5ac7735509c0fa4fe.avi (558.8 MB)



General
Complete name : ./f4eebff58adf4bd5ac7735509c0fa4fe.avi
Format : AVI
Format/Info : Audio Video Interleave
File size : 559 MiB
Duration : 57 min 5 s
Overall bit rate : 1 368 kb/s
Writing library : VirtualDub build 35491/release

Video
ID : 0
Format : MPEG-4 Visual
Format profile : Advanced Simple@L5
Format settings, BVOP : No
Format settings, QPel : No
Format settings, GMC : No warppoints
Format settings, Matrix : Default (H.263)
Codec ID : XVID
Codec ID/Hint : XviD
Duration : 57 min 5 s
Bit rate : 1 167 kb/s
Width : 624 pixels
Height : 350 pixels
Display aspect ratio : 16:9
Frame rate : 23.976 (24000/1001) FPS
Color space : YUV
Chroma subsampling : 4:2:0
Bit depth : 8 bits
Scan type : Progressive
Compression mode : Lossy
Bits/(Pixel*Frame) : 0.223
Stream size : 477 MiB (85%)
Writing library : XviD 64

Audio
ID : 1
Format : MPEG Audio
Format version : Version 1
Format profile : Layer 3
Format settings : Joint stereo / MS Stereo
Mode : Joint stereo
Mode extension : MS Stereo
Codec ID : 55
Codec ID/Hint : MP3
Duration : 57 min 5 s
Bit rate mode : Constant
Bit rate : 192 kb/s
Channel(s) : 2 channels
Sampling rate : 48.0 kHz
Compression mode : Lossy
Stream size : 78.4 MiB (14%)
Alignment : Split accross interleaves
Interleave, duration : 42 ms (1.00 video frame)
Interleave, preload duration : 500 ms





Twin Peaks S03E18


Twin Peaks S03E18


Twin Peaks S03E18


Twin Peaks S03E18


Twin Peaks S03E18

All episodes