Index
# A B C D E F G H I J K L M N O P Q R S T U V W Y Z
Tags
Language
Tags

Featured TV Shows


Tyler Perry's Sistas S03E11

Posted By: Tavaz
720p (HD) / WEBRip IMDb
Tyler Perry's Sistas S03E11

Tyler Perry's Sistas S03E11
WEBRip | MKV | 1280x720 | English | H264 @ 2339 kbps | AAC @ 128 kbps | 42 min 41 s | 754 MiB
Subtitles: English
Genre: Commedia, Dramma


There's nothing that bonds a group of single black women together more than sidestepping the land mines of living, working and dating in Atlanta. In a sea of swipe-lefts, social media drama and unrealistic #relationshipgoals, these friends try to find their Mr. Right.

Tyler.Perrys.Sistas.S03E11.Unlock.It.720p.WEB.h264-CRiMSON.mkv (754.4 MB)



General
Unique ID : 47332000768643037977250539838083411985 (0x239BCFCF8E6E865F8FCB2E5E27CFB011)
Complete name : ./Tyler.Perrys.Sistas.S03E11.Unlock.It.720p.WEB.h264-CRiMSON.mkv
Format : Matroska
Format version : Version 4 / Version 2
File size : 754 MiB
Duration : 42 min 41 s
Overall bit rate : 2 470 kb/s
Encoded date : UTC 2021-09-29 12:27:57
Writing application : mkvmerge v30.1.0 ('Forever And More') 64-bit
Writing library : libebml v1.3.6 + libmatroska v1.4.9

Video
ID : 3
Format : AVC
Format/Info : Advanced Video Codec
Format profile : High@L4
Format settings : CABAC / 4 Ref Frames
Format settings, CABAC : Yes
Format settings, RefFrames : 4 frames
Codec ID : V_MPEG4/ISO/AVC
Duration : 42 min 41 s
Bit rate : 2 340 kb/s
Width : 1 280 pixels
Height : 720 pixels
Display aspect ratio : 16:9
Frame rate mode : Constant
Frame rate : 23.976 (23976/1000) FPS
Color space : YUV
Chroma subsampling : 4:2:0
Bit depth : 8 bits
Scan type : Progressive
Bits/(Pixel*Frame) : 0.106
Stream size : 714 MiB (95%)
Writing library : x264 core 160
Encoding settings : cabac=1 / ref=4 / deblock=1:0:0 / analyse=0x3:0x113 / me=umh / subme=10 / psy=1 / psy_rd=1.00:0.15 / mixed_ref=1 / me_range=16 / chroma_me=1 / trellis=2 / 8x8dct=1 / cqm=0 / deadzone=21,11 / fast_pskip=1 / chroma_qp_offset=-3 / threads=14 / lookahead_threads=4 / sliced_threads=0 / nr=0 / decimate=1 / interlaced=0 / bluray_compat=0 / constrained_intra=0 / bframes=3 / b_pyramid=0 / b_adapt=2 / b_bias=0 / direct=3 / weightb=1 / open_gop=0 / weightp=2 / keyint=48 / keyint_min=4 / scenecut=0 / intra_refresh=0 / rc_lookahead=48 / rc=crf / mbtree=1 / crf=19.0 / qcomp=0.75 / qpmin=10 / qpmax=51 / qpstep=4 / vbv_maxrate=3000 / vbv_bufsize=6000 / crf_max=0.0 / nal_hrd=none / filler=0 / ip_ratio=1.40 / aq=1:0.80
Language : English
Default : Yes
Forced : No

Audio
ID : 2
Format : AAC
Format/Info : Advanced Audio Codec
Format profile : LC
Codec ID : A_AAC-2
Duration : 42 min 41 s
Bit rate : 128 kb/s
Channel(s) : 2 channels
Channel positions : Front: L R
Sampling rate : 48.0 kHz
Frame rate : 46.875 FPS (1024 SPF)
Compression mode : Lossy
Delay relative to video : -42 ms
Stream size : 39.1 MiB (5%)
Language : English
Default : Yes
Forced : No

Text #1
ID : 1
Format : UTF-8
Codec ID : S_TEXT/UTF8
Codec ID/Info : UTF-8 Plain Text
Duration : 42 min 40 s
Bit rate : 84 b/s
Count of elements : 911
Stream size : 26.3 KiB (0%)
Language : English
Default : No
Forced : No

Text #2
ID : 4
Format : UTF-8
Codec ID : S_TEXT/UTF8
Codec ID/Info : UTF-8 Plain Text
Duration : 42 min 40 s
Bit rate : 84 b/s
Count of elements : 911
Stream size : 26.3 KiB (0%)
Language : English
Default : No
Forced : No





Tyler Perry's Sistas S03E11


Tyler Perry's Sistas S03E11


Tyler Perry's Sistas S03E11


Tyler Perry's Sistas S03E11


Tyler Perry's Sistas S03E11

All episodes