Featured TV Shows


Unikitty S02E07

Posted By: Tavaz
1080p (FullHD) / HDTV IMDb
Unikitty S02E07

Unikitty S02E07
HDTV | MKV | 1920x1080 | English | H264 @ 5313 kbps | AC-3 @ 384 kbps | 10 min 42 s | 445 MiB


None

Unikitty.S02E07.No.Sleep.Sleepover.1080p.HDTV.h264-PLUTONiUM.mkv (445.0 MB)



General
Complete name : ./Unikitty.S02E07.No.Sleep.Sleepover.1080p.HDTV.h264-PLUTONiUM.mkv
Format : Matroska
Format version : Version 4 / Version 2
File size : 445 MiB
Duration : 10 min 42 s
Overall bit rate : 5 813 kb/s
Writing application : https://www.youtube.com/watch?v=sxGoI3lEalk
Writing library : BiSH - Orchestra (Live Acustic)
Tool : Multi Group Release Encoder v39.8

Video
ID : 1
Format : AVC
Format/Info : Advanced Video Codec
Format profile : High@L4
Format settings : CABAC / 4 Ref Frames
Format settings, CABAC : Yes
Format settings, RefFrames : 4 frames
Format settings, GOP : M=3, N=15
Codec ID : V_MPEG4/ISO/AVC
Duration : 10 min 42 s
Bit rate : 5 313 kb/s
Width : 1 920 pixels
Height : 1 080 pixels
Display aspect ratio : 16:9
Frame rate mode : Constant
Frame rate : 25.000 FPS
Standard : Component
Color space : YUV
Chroma subsampling : 4:2:0
Bit depth : 8 bits
Scan type : Interlaced
Scan type, store method : Separated fields
Scan order : Top Field First
Bits/(Pixel*Frame) : 0.102
Stream size : 407 MiB (91%)
Language : English
Default : Yes
Forced : No
Color range : Limited
Color primaries : BT.709
Transfer characteristics : BT.709
Matrix coefficients : BT.709

Audio
ID : 2
Format : AC-3
Format/Info : Audio Coding 3
Format settings, Endianness : Big
Codec ID : A_AC3
Duration : 10 min 42 s
Bit rate mode : Constant
Bit rate : 384 kb/s
Channel(s) : 6 channels
Channel positions : Front: L C R, Side: L R, LFE
Sampling rate : 48.0 kHz
Frame rate : 31.250 FPS (1536 SPF)
Bit depth : 16 bits
Compression mode : Lossy
Stream size : 29.4 MiB (7%)
Language : English
Service kind : Complete Main
Default : Yes
Forced : No





Unikitty S02E07


Unikitty S02E07


Unikitty S02E07


Unikitty S02E07


Unikitty S02E07

All episodes