Featured TV Shows


Unikitty S03E10

Posted By: Tavaz
1080p (FullHD) / WEB-DL IMDb
Unikitty S03E10

Unikitty S03E10
WEB-DL | MKV | 1920x1080 | English | H264 @ 4399 kbps | E-AC-3 @ 640 kbps | 11 min 16 s | 406 MiB
Subtitles: English
Genre: Animation, Comedy, Family


As ruler of the kingdom, Unikitty has busy days full of royal responsibilities. Unikitty is most interested in making sure everyone is happy and ridding the kingdom of negativity, but don't misunderstand her optimism, she is one kitty not to be crossed. While she may be full of boundless energy and creativity, Unikitty is a force to be reckoned with if anyone gets in the way of spreading her positive vibes, especially if anyone makes her little brother and best friend, Puppycorn, sad. Also living in the castle are Dr. Fox, the resident scientist, and Unikitty's trusty bodyguard, Hawkodile. Through it all, Unikitty and her friends make sure that every day is the happiest and most creative ever.

61b3021db70745279021d7f34e41baea.mkv (406.4 MB)



General
Unique ID : 282315730410207658162616162124769949219 (0xD464082A6476FE62C1ED110F7E7E7623)
Complete name : ./61b3021db70745279021d7f34e41baea.mkv
Format : Matroska
Format version : Version 4 / Version 2
File size : 406 MiB
Duration : 11 min 16 s
Overall bit rate : 5 042 kb/s
Encoded date : UTC 2020-03-24 01:10:36
Writing application : mkvmerge v44.0.0 ('Domino') 64-bit
Writing library : libebml v1.3.10 + libmatroska v1.5.2

Video
ID : 1
Format : AVC
Format/Info : Advanced Video Codec
Format profile : High@L4
Format settings : CABAC / 4 Ref Frames
Format settings, CABAC : Yes
Format settings, RefFrames : 4 frames
Codec ID : V_MPEG4/ISO/AVC
Duration : 11 min 16 s
Bit rate mode : Constant
Bit rate : 4 400 kb/s
Nominal bit rate : 10 000 kb/s
Width : 1 920 pixels
Height : 1 080 pixels
Display aspect ratio : 16:9
Frame rate mode : Constant
Frame rate : 23.976 (24000/1001) FPS
Color space : YUV
Chroma subsampling : 4:2:0
Bit depth : 8 bits
Scan type : Progressive
Bits/(Pixel*Frame) : 0.089
Stream size : 355 MiB (87%)
Default : Yes
Forced : No
Color range : Limited
Color primaries : BT.709
Transfer characteristics : BT.709
Matrix coefficients : BT.709

Audio
ID : 2
Format : E-AC-3
Format/Info : Enhanced Audio Coding 3
Format settings, Endianness : Big
Codec ID : A_EAC3
Duration : 11 min 16 s
Bit rate mode : Constant
Bit rate : 640 kb/s
Channel(s) : 6 channels
Channel positions : Front: L C R, Side: L R, LFE
Sampling rate : 48.0 kHz
Frame rate : 187.500 FPS (256 SPF)
Compression mode : Lossy
Stream size : 51.6 MiB (13%)
Language : English
Service kind : Complete Main
Default : Yes
Forced : No

Text
ID : 3
Format : UTF-8
Codec ID : S_TEXT/UTF8
Codec ID/Info : UTF-8 Plain Text
Duration : 11 min 3 s
Bit rate : 103 b/s
Count of elements : 264
Stream size : 8.36 KiB (0%)
Language : English
Default : No
Forced : No





Unikitty S03E10


Unikitty S03E10


Unikitty S03E10


Unikitty S03E10


Unikitty S03E10

All episodes