Featured TV Shows


Unikitty S03E11

Posted By: Tavaz
720p (HD) / WEB-DL IMDb
Unikitty S03E11

Unikitty S03E11
WEB-DL | MKV | 1280x720 | English | H264 @ 2185 kbps | E-AC-3 @ 640 kbps | 11 min 16 s | 228 MiB
Subtitles: English
Genre: Animation, Comedy, Family


As ruler of the kingdom, Unikitty has busy days full of royal responsibilities. Unikitty is most interested in making sure everyone is happy and ridding the kingdom of negativity, but don't misunderstand her optimism, she is one kitty not to be crossed. While she may be full of boundless energy and creativity, Unikitty is a force to be reckoned with if anyone gets in the way of spreading her positive vibes, especially if anyone makes her little brother and best friend, Puppycorn, sad. Also living in the castle are Dr. Fox, the resident scientist, and Unikitty's trusty bodyguard, Hawkodile. Through it all, Unikitty and her friends make sure that every day is the happiest and most creative ever.

d196b2747d0c40e6882bd4236cb35a03.mkv (228.1 MB)



General
Unique ID : 79575493319848690121061510317904992442 (0x3BDDAEBB1969CD21494D9E18BA4398BA)
Complete name : ./d196b2747d0c40e6882bd4236cb35a03.mkv
Format : Matroska
Format version : Version 4 / Version 2
File size : 228 MiB
Duration : 11 min 16 s
Overall bit rate : 2 828 kb/s
Encoded date : UTC 2020-03-30 23:58:02
Writing application : mkvmerge v44.0.0 ('Domino') 64-bit
Writing library : libebml v1.3.10 + libmatroska v1.5.2

Video
ID : 1
Format : AVC
Format/Info : Advanced Video Codec
Format profile : High@L3.1
Format settings : CABAC / 4 Ref Frames
Format settings, CABAC : Yes
Format settings, RefFrames : 4 frames
Codec ID : V_MPEG4/ISO/AVC
Duration : 11 min 16 s
Bit rate mode : Constant
Bit rate : 2 186 kb/s
Nominal bit rate : 6 000 kb/s
Width : 1 280 pixels
Height : 720 pixels
Display aspect ratio : 16:9
Frame rate mode : Constant
Frame rate : 23.976 (24000/1001) FPS
Color space : YUV
Chroma subsampling : 4:2:0
Bit depth : 8 bits
Scan type : Progressive
Bits/(Pixel*Frame) : 0.099
Stream size : 176 MiB (77%)
Default : Yes
Forced : No
Color range : Limited
Color primaries : BT.709
Transfer characteristics : BT.709
Matrix coefficients : BT.709

Audio
ID : 2
Format : E-AC-3
Format/Info : Enhanced Audio Coding 3
Format settings, Endianness : Big
Codec ID : A_EAC3
Duration : 11 min 16 s
Bit rate mode : Constant
Bit rate : 640 kb/s
Channel(s) : 6 channels
Channel positions : Front: L C R, Side: L R, LFE
Sampling rate : 48.0 kHz
Frame rate : 187.500 FPS (256 SPF)
Compression mode : Lossy
Stream size : 51.6 MiB (23%)
Language : English
Service kind : Complete Main
Default : Yes
Forced : No

Text
ID : 3
Format : UTF-8
Codec ID : S_TEXT/UTF8
Codec ID/Info : UTF-8 Plain Text
Duration : 11 min 3 s
Bit rate : 91 b/s
Count of elements : 283
Stream size : 7.41 KiB (0%)
Language : English
Default : No
Forced : No





Unikitty S03E11


Unikitty S03E11


Unikitty S03E11


Unikitty S03E11


Unikitty S03E11

All episodes