Index
# A B C D E F G H I J K L M N O P Q R S T U V W Y Z
Tags
Language
Tags

Featured TV Shows


Until Life Do Us Part S01E08

Posted By: Tavaz
1080p (FullHD) / WEB-DL IMDb
Until Life Do Us Part S01E08

Until Life Do Us Part S01E08
WEB-DL | MKV | 1920x1080 | Português / English | H264 @ 6930 kbps | E-AC-3 @ 640 kbps | 53 min 50 s | 3.09 GiB
Subtitles: ภาษาไทย, Hrvatski, Français, tiếng Việt, Español, Magyar, 日本語, עברית, 한국어, Русский, Ελληνικά, Nederlands, Dansk, Bahasa Indonesia, Bokmål, 中文, Suomi, Polski, Türkçe, English, Română, العربية, Deutsch, Українська, Svenska, Italiano, Português, Čeština
Genre: Drama




4b0e10e43b294d2ebca43d210547cef4.mkv (3.1 GB)



General
Unique ID : 255356139343076610203683445291012483335 (0xC01BCDB3C65666805DB0E9009BC26907)
Complete name : ./4b0e10e43b294d2ebca43d210547cef4.mkv
Format : Matroska
Format version : Version 4 / Version 2
File size : 3.09 GiB
Duration : 53 min 50 s
Overall bit rate mode : Variable
Overall bit rate : 8 215 kb/s
Writing application : mkvmerge v64.0.0 ('Willows') 64-bit
Writing library : libebml v1.4.2 + libmatroska v1.6.4

Video
ID : 1
Format : AVC
Format/Info : Advanced Video Codec
Format profile : High@L4
Format settings : CABAC / 4 Ref Frames
Format settings, CABAC : Yes
Format settings, RefFrames : 4 frames
Codec ID : V_MPEG4/ISO/AVC
Duration : 53 min 49 s
Bit rate mode : Variable
Bit rate : 6 931 kb/s
Maximum bit rate : 20.0 Mb/s
Width : 1 920 pixels
Height : 1 080 pixels
Display aspect ratio : 16:9
Frame rate mode : Constant
Frame rate : 25.000 FPS
Color space : YUV
Chroma subsampling : 4:2:0
Bit depth : 8 bits
Scan type : Progressive
Bits/(Pixel*Frame) : 0.134
Stream size : 2.61 GiB (84%)
Writing library : x264 core 148 r2727 7d026e8
Encoding settings : cabac=1 / ref=4 / deblock=1:0:0 / analyse=0x3:0x111 / me=umh / subme=10 / psy=1 / psy_rd=1.00:0.00 / mixed_ref=1 / me_range=120 / chroma_me=1 / trellis=2 / 8x8dct=1 / cqm=0 / deadzone=21,11 / fast_pskip=1 / chroma_qp_offset=-2 / threads=8 / lookahead_threads=2 / sliced_threads=0 / nr=0 / decimate=1 / interlaced=0 / bluray_compat=0 / stitchable=1 / constrained_intra=0 / bframes=16 / b_pyramid=2 / b_adapt=2 / b_bias=0 / direct=3 / weightb=1 / open_gop=0 / weightp=2 / keyint=250 / keyint_min=126 / scenecut=0 / intra_refresh=0 / rc_lookahead=250 / rc=crf / mbtree=1 / crf=21.0 / qcomp=0.50 / qpmin=6 / qpmax=51 / qpstep=4 / vbv_maxrate=20000 / vbv_bufsize=25000 / crf_max=0.0 / nal_hrd=vbr / filler=0 / ip_ratio=1.40 / aq=1:0.80
Default : Yes
Forced : No

Audio #1
ID : 2
Format : E-AC-3
Format/Info : Enhanced Audio Coding 3
Format settings, Endianness : Big
Codec ID : A_EAC3
Duration : 53 min 50 s
Bit rate mode : Constant
Bit rate : 640 kb/s
Channel(s) : 6 channels
Channel positions : Front: L C R, Side: L R, LFE
Sampling rate : 48.0 kHz
Frame rate : 187.500 FPS (256 SPF)
Compression mode : Lossy
Stream size : 246 MiB (8%)
Language : Portuguese
Service kind : Complete Main
Default : Yes
Forced : No

Audio #2
ID : 3
Format : E-AC-3
Format/Info : Enhanced Audio Coding 3
Format settings, Endianness : Big
Codec ID : A_EAC3
Duration : 53 min 50 s
Bit rate mode : Constant
Bit rate : 640 kb/s
Channel(s) : 6 channels
Channel positions : Front: L C R, Side: L R, LFE
Sampling rate : 48.0 kHz
Frame rate : 187.500 FPS (256 SPF)
Compression mode : Lossy
Stream size : 246 MiB (8%)
Language : English
Service kind : Complete Main
Default : No
Forced : No

Text #1
ID : 4
Format : UTF-8
Codec ID : S_TEXT/UTF8
Codec ID/Info : UTF-8 Plain Text
Duration : 47 min 54 s
Bit rate : 1 b/s
Count of elements : 14
Stream size : 473 Bytes (0%)
Title : Forced
Language : English
Default : No
Forced : No

Text #2
ID : 5
Format : UTF-8
Codec ID : S_TEXT/UTF8
Codec ID/Info : UTF-8 Plain Text
Duration : 52 min 9 s
Bit rate : 47 b/s
Count of elements : 522
Stream size : 18.3 KiB (0%)
Title : Brazilian
Language : Portuguese
Default : No
Forced : No

Text #3
ID : 6
Format : UTF-8
Codec ID : S_TEXT/UTF8
Codec ID/Info : UTF-8 Plain Text
Duration : 52 min 9 s
Bit rate : 54 b/s
Count of elements : 600
Stream size : 20.8 KiB (0%)
Title : SDH
Language : Portuguese
Default : No
Forced : No

Text #4
ID : 7
Format : UTF-8
Codec ID : S_TEXT/UTF8
Codec ID/Info : UTF-8 Plain Text
Duration : 52 min 27 s
Bit rate : 72 b/s
Count of elements : 539
Stream size : 27.8 KiB (0%)
Language : Arabic
Default : No
Forced : No

Text #5
ID : 8
Format : UTF-8
Codec ID : S_TEXT/UTF8
Codec ID/Info : UTF-8 Plain Text
Duration : 52 min 27 s
Bit rate : 42 b/s
Count of elements : 538
Stream size : 16.5 KiB (0%)
Language : Czech
Default : No
Forced : No

Text #6
ID : 9
Format : UTF-8
Codec ID : S_TEXT/UTF8
Codec ID/Info : UTF-8 Plain Text
Duration : 52 min 27 s
Bit rate : 41 b/s
Count of elements : 538
Stream size : 16.1 KiB (0%)
Language : Danish
Default : No
Forced : No

Text #7
ID : 10
Format : UTF-8
Codec ID : S_TEXT/UTF8
Codec ID/Info : UTF-8 Plain Text
Duration : 52 min 27 s
Bit rate : 45 b/s
Count of elements : 538
Stream size : 17.5 KiB (0%)
Language : German
Default : No
Forced : No

Text #8
ID : 11
Format : UTF-8
Codec ID : S_TEXT/UTF8
Codec ID/Info : UTF-8 Plain Text
Duration : 52 min 27 s
Bit rate : 77 b/s
Count of elements : 538
Stream size : 29.6 KiB (0%)
Language : Greek
Default : No
Forced : No

Text #9
ID : 12
Format : UTF-8
Codec ID : S_TEXT/UTF8
Codec ID/Info : UTF-8 Plain Text
Duration : 52 min 35 s
Bit rate : 47 b/s
Count of elements : 545
Stream size : 18.1 KiB (0%)
Language : English
Default : No
Forced : No

Text #10
ID : 13
Format : UTF-8
Codec ID : S_TEXT/UTF8
Codec ID/Info : UTF-8 Plain Text
Duration : 51 min 33 s
Bit rate : 53 b/s
Count of elements : 611
Stream size : 20.1 KiB (0%)
Language : English
Default : No
Forced : No

Text #11
ID : 14
Format : UTF-8
Codec ID : S_TEXT/UTF8
Codec ID/Info : UTF-8 Plain Text
Duration : 52 min 21 s
Bit rate : 65 b/s
Count of elements : 762
Stream size : 25.2 KiB (0%)
Title : SDH
Language : English
Default : No
Forced : No

Text #12
ID : 15
Format : UTF-8
Codec ID : S_TEXT/UTF8
Codec ID/Info : UTF-8 Plain Text
Duration : 52 min 27 s
Bit rate : 44 b/s
Count of elements : 538
Stream size : 17.0 KiB (0%)
Language : Spanish
Default : No
Forced : No

Text #13
ID : 16
Format : UTF-8
Codec ID : S_TEXT/UTF8
Codec ID/Info : UTF-8 Plain Text
Duration : 52 min 27 s
Bit rate : 44 b/s
Count of elements : 538
Stream size : 17.0 KiB (0%)
Title : European
Language : Spanish
Default : No
Forced : No

Text #14
ID : 17
Format : UTF-8
Codec ID : S_TEXT/UTF8
Codec ID/Info : UTF-8 Plain Text
Duration : 52 min 27 s
Bit rate : 41 b/s
Count of elements : 536
Stream size : 15.8 KiB (0%)
Language : Finnish
Default : No
Forced : No

Text #15
ID : 18
Format : UTF-8
Codec ID : S_TEXT/UTF8
Codec ID/Info : UTF-8 Plain Text
Duration : 52 min 27 s
Bit rate : 45 b/s
Count of elements : 535
Stream size : 17.4 KiB (0%)
Language : French
Default : No
Forced : No

Text #16
ID : 19
Format : UTF-8
Codec ID : S_TEXT/UTF8
Codec ID/Info : UTF-8 Plain Text
Duration : 51 min 32 s
Bit rate : 67 b/s
Count of elements : 539
Stream size : 25.3 KiB (0%)
Language : Hebrew
Default : No
Forced : No

Text #17
ID : 20
Format : UTF-8
Codec ID : S_TEXT/UTF8
Codec ID/Info : UTF-8 Plain Text
Duration : 52 min 27 s
Bit rate : 41 b/s
Count of elements : 537
Stream size : 15.8 KiB (0%)
Language : Croatian
Default : No
Forced : No

Text #18
ID : 21
Format : UTF-8
Codec ID : S_TEXT/UTF8
Codec ID/Info : UTF-8 Plain Text
Duration : 52 min 27 s
Bit rate : 43 b/s
Count of elements : 538
Stream size : 16.7 KiB (0%)
Language : Hungarian
Default : No
Forced : No

Text #19
ID : 22
Format : UTF-8
Codec ID : S_TEXT/UTF8
Codec ID/Info : UTF-8 Plain Text
Duration : 52 min 27 s
Bit rate : 43 b/s
Count of elements : 538
Stream size : 16.7 KiB (0%)
Language : Indonesian
Default : No
Forced : No

Text #20
ID : 23
Format : UTF-8
Codec ID : S_TEXT/UTF8
Codec ID/Info : UTF-8 Plain Text
Duration : 52 min 27 s
Bit rate : 43 b/s
Count of elements : 537
Stream size : 16.7 KiB (0%)
Language : Italian
Default : No
Forced : No

Text #21
ID : 24
Format : UTF-8
Codec ID : S_TEXT/UTF8
Codec ID/Info : UTF-8 Plain Text
Duration : 52 min 27 s
Bit rate : 47 b/s
Count of elements : 637
Stream size : 18.1 KiB (0%)
Language : Japanese
Default : No
Forced : No

Text #22
ID : 25
Format : UTF-8
Codec ID : S_TEXT/UTF8
Codec ID/Info : UTF-8 Plain Text
Duration : 52 min 27 s
Bit rate : 58 b/s
Count of elements : 540
Stream size : 22.4 KiB (0%)
Language : Korean
Default : No
Forced : No

Text #23
ID : 26
Format : UTF-8
Codec ID : S_TEXT/UTF8
Codec ID/Info : UTF-8 Plain Text
Duration : 52 min 27 s
Bit rate : 43 b/s
Count of elements : 538
Stream size : 16.7 KiB (0%)
Language : Malay
Default : No
Forced : No

Text #24
ID : 27
Format : UTF-8
Codec ID : S_TEXT/UTF8
Codec ID/Info : UTF-8 Plain Text
Duration : 52 min 27 s
Bit rate : 43 b/s
Count of elements : 538
Stream size : 16.7 KiB (0%)
Language : Norwegian Bokmal
Default : No
Forced : No

Text #25
ID : 28
Format : UTF-8
Codec ID : S_TEXT/UTF8
Codec ID/Info : UTF-8 Plain Text
Duration : 52 min 27 s
Bit rate : 41 b/s
Count of elements : 535
Stream size : 16.0 KiB (0%)
Language : Dutch
Default : No
Forced : No

Text #26
ID : 29
Format : UTF-8
Codec ID : S_TEXT/UTF8
Codec ID/Info : UTF-8 Plain Text
Duration : 52 min 27 s
Bit rate : 41 b/s
Count of elements : 536
Stream size : 15.8 KiB (0%)
Language : Polish
Default : No
Forced : No

Text #27
ID : 30
Format : UTF-8
Codec ID : S_TEXT/UTF8
Codec ID/Info : UTF-8 Plain Text
Duration : 52 min 27 s
Bit rate : 51 b/s
Count of elements : 538
Stream size : 19.8 KiB (0%)
Language : Romanian
Default : No
Forced : No

Text #28
ID : 31
Format : UTF-8
Codec ID : S_TEXT/UTF8
Codec ID/Info : UTF-8 Plain Text
Duration : 52 min 27 s
Bit rate : 74 b/s
Count of elements : 540
Stream size : 28.7 KiB (0%)
Language : Russian
Default : No
Forced : No

Text #29
ID : 32
Format : UTF-8
Codec ID : S_TEXT/UTF8
Codec ID/Info : UTF-8 Plain Text
Duration : 52 min 27 s
Bit rate : 44 b/s
Count of elements : 538
Stream size : 17.2 KiB (0%)
Language : Swedish
Default : No
Forced : No

Text #30
ID : 33
Format : UTF-8
Codec ID : S_TEXT/UTF8
Codec ID/Info : UTF-8 Plain Text
Duration : 52 min 27 s
Bit rate : 103 b/s
Count of elements : 540
Stream size : 39.8 KiB (0%)
Language : Thai
Default : No
Forced : No

Text #31
ID : 34
Format : UTF-8
Codec ID : S_TEXT/UTF8
Codec ID/Info : UTF-8 Plain Text
Duration : 52 min 27 s
Bit rate : 43 b/s
Count of elements : 540
Stream size : 16.8 KiB (0%)
Language : Turkish
Default : No
Forced : No

Text #32
ID : 35
Format : UTF-8
Codec ID : S_TEXT/UTF8
Codec ID/Info : UTF-8 Plain Text
Duration : 51 min 32 s
Bit rate : 72 b/s
Count of elements : 539
Stream size : 27.3 KiB (0%)
Language : Ukrainian
Default : No
Forced : No

Text #33
ID : 36
Format : UTF-8
Codec ID : S_TEXT/UTF8
Codec ID/Info : UTF-8 Plain Text
Duration : 52 min 27 s
Bit rate : 64 b/s
Count of elements : 538
Stream size : 24.8 KiB (0%)
Language : Vietnamese
Default : No
Forced : No

Text #34
ID : 37
Format : UTF-8
Codec ID : S_TEXT/UTF8
Codec ID/Info : UTF-8 Plain Text
Duration : 52 min 27 s
Bit rate : 49 b/s
Count of elements : 540
Stream size : 19.2 KiB (0%)
Title : Simplified
Language : Chinese
Default : No
Forced : No

Text #35
ID : 38
Format : UTF-8
Codec ID : S_TEXT/UTF8
Codec ID/Info : UTF-8 Plain Text
Duration : 52 min 27 s
Bit rate : 46 b/s
Count of elements : 540
Stream size : 17.9 KiB (0%)
Title : Traditional
Language : Chinese
Default : No
Forced : No

Menu
00:07:14.640 : en:Intro
00:08:02.440 : en:Intro End
00:51:45.000 : en:Credits





Until Life Do Us Part S01E08


Until Life Do Us Part S01E08


Until Life Do Us Part S01E08


Until Life Do Us Part S01E08


Until Life Do Us Part S01E08

All episodes