Index
# A B C D E F G H I J K L M N O P Q R S T U V W Y Z
Tags
Language
Tags

Featured TV Shows


Utopia Falls S01E01

Posted By: Tavaz
720p (HD) / WEB-DL IMDb
Utopia Falls S01E01

Utopia Falls S01E01
WEB-DL | MKV | 1280x720 | English | H264 @ 1775 kbps | E-AC-3 @ 256 kbps | 44 min 8 s | 642 MiB
Subtitles: Español, English
Genre: Drama


In a genre bending take on a coming of age story, a group of teens in a distant future colony uncover an ancient forbidden archive of historical, cultural and musical relics. This discovery forces them to question everything they've been taught, and use the power of music to ignite change in their reality to expose the truth.

2e74cf656780434fafec52a5679bf5d5.mkv (642.1 MB)



General
Unique ID : 81308780471422537116938323120029130624 (0x3D2B8062A442F2D5BA3B66F912CF5F80)
Complete name : ./2e74cf656780434fafec52a5679bf5d5.mkv
Format : Matroska
Format version : Version 4 / Version 2
File size : 642 MiB
Duration : 44 min 8 s
Overall bit rate : 2 034 kb/s
Encoded date : UTC 2020-02-14 05:01:44
Writing application : mkvmerge v38.0.0 ('The Silent Type') 64-bit
Writing library : libebml v1.3.9 + libmatroska v1.5.2

Video
ID : 1
Format : AVC
Format/Info : Advanced Video Codec
Format profile : High@L3.1
Format settings : CABAC / 5 Ref Frames
Format settings, CABAC : Yes
Format settings, RefFrames : 5 frames
Codec ID : V_MPEG4/ISO/AVC
Duration : 44 min 7 s
Bit rate : 1 776 kb/s
Width : 1 280 pixels
Height : 720 pixels
Display aspect ratio : 16:9
Frame rate mode : Constant
Frame rate : 23.976 (24000/1001) FPS
Color space : YUV
Chroma subsampling : 4:2:0
Bit depth : 8 bits
Scan type : Progressive
Bits/(Pixel*Frame) : 0.080
Stream size : 561 MiB (87%)
Default : Yes
Forced : No

Audio
ID : 2
Format : E-AC-3
Format/Info : Enhanced Audio Coding 3
Format settings, Endianness : Big
Codec ID : A_EAC3
Duration : 44 min 8 s
Bit rate mode : Constant
Bit rate : 256 kb/s
Channel(s) : 6 channels
Channel positions : Front: L C R, Side: L R, LFE
Sampling rate : 48.0 kHz
Frame rate : 187.500 FPS (256 SPF)
Compression mode : Lossy
Stream size : 80.8 MiB (13%)
Language : English
Service kind : Complete Main
Default : Yes
Forced : No

Text #1
ID : 3
Format : UTF-8
Codec ID : S_TEXT/UTF8
Codec ID/Info : UTF-8 Plain Text
Duration : 43 min 33 s
Bit rate : 82 b/s
Count of elements : 842
Stream size : 26.5 KiB (0%)
Language : English
Default : No
Forced : No

Text #2
ID : 4
Format : UTF-8
Codec ID : S_TEXT/UTF8
Codec ID/Info : UTF-8 Plain Text
Duration : 43 min 33 s
Bit rate : 91 b/s
Count of elements : 871
Stream size : 29.3 KiB (0%)
Language : Spanish
Default : No
Forced : No





Utopia Falls S01E01


Utopia Falls S01E01


Utopia Falls S01E01


Utopia Falls S01E01


Utopia Falls S01E01

All episodes