Index
# A B C D E F G H I J K L M N O P Q R S T U V W Y Z
Tags
Language
Tags

Featured TV Shows


Utopia Falls S01E04

Posted By: Tavaz
2160p (4k UHD) / WEBRip IMDb
Utopia Falls S01E04

Utopia Falls S01E04
WEBRip | MKV | 3840x2160 | English | H265 @ 15587 kbps | E-AC-3 @ 256 kbps | 44 min 8 s | 4.88 GiB
Subtitles: Español, English
Genre: Drama


In a genre bending take on a coming of age story, a group of teens in a distant future colony uncover an ancient forbidden archive of historical, cultural and musical relics. This discovery forces them to question everything they've been taught, and use the power of music to ignite change in their reality to expose the truth.

deceab8ffc2ca6f727ab3bda24e12fa1.mkv (4.9 GB)



General
Unique ID : 37989529994598193084843882930522198497 (0x1C94847053CD59FB67ACFBC0CB3A91E1)
Complete name : ./deceab8ffc2ca6f727ab3bda24e12fa1.mkv
Format : Matroska
Format version : Version 4 / Version 2
File size : 4.88 GiB
Duration : 44 min 8 s
Overall bit rate : 15.8 Mb/s
Encoded date : UTC 2020-02-14 07:45:08
Writing application : mkvmerge v41.0.0 ('Smarra') 64-bit
Writing library : libebml v1.3.9 + libmatroska v1.5.2

Video
ID : 1
Format : HEVC
Format/Info : High Efficiency Video Coding
Format profile : Main 10@L5.1@Main
Codec ID : V_MPEGH/ISO/HEVC
Duration : 44 min 7 s
Bit rate : 15.6 Mb/s
Width : 3 840 pixels
Height : 2 160 pixels
Display aspect ratio : 16:9
Frame rate mode : Constant
Frame rate : 23.976 (24000/1001) FPS
Color space : YUV
Chroma subsampling : 4:2:0
Bit depth : 10 bits
Bits/(Pixel*Frame) : 0.078
Stream size : 4.81 GiB (98%)
Language : English
Default : Yes
Forced : No

Audio
ID : 2
Format : E-AC-3
Format/Info : Enhanced Audio Coding 3
Format settings, Endianness : Big
Codec ID : A_EAC3
Duration : 44 min 8 s
Bit rate mode : Constant
Bit rate : 256 kb/s
Channel(s) : 6 channels
Channel positions : Front: L C R, Side: L R, LFE
Sampling rate : 48.0 kHz
Frame rate : 187.500 FPS (256 SPF)
Compression mode : Lossy
Stream size : 80.8 MiB (2%)
Language : English
Service kind : Complete Main
Default : Yes
Forced : No

Text #1
ID : 3
Format : UTF-8
Codec ID : S_TEXT/UTF8
Codec ID/Info : UTF-8 Plain Text
Duration : 43 min 35 s
Bit rate : 93 b/s
Count of elements : 903
Stream size : 29.9 KiB (0%)
Title : English
Language : English
Default : No
Forced : No

Text #2
ID : 4
Format : UTF-8
Codec ID : S_TEXT/UTF8
Codec ID/Info : UTF-8 Plain Text
Duration : 43 min 35 s
Bit rate : 96 b/s
Count of elements : 899
Stream size : 30.7 KiB (0%)
Title : Spanish; Castilian
Language : Spanish
Default : No
Forced : No





Utopia Falls S01E04


Utopia Falls S01E04


Utopia Falls S01E04


Utopia Falls S01E04


Utopia Falls S01E04

All episodes