Index
# A B C D E F G H I J K L M N O P Q R S T U V W Y Z
Tags
Language
Tags

Featured TV Shows


For Life S01E05

Posted By: Tavaz
1080p (FullHD) / WEBRip IMDb
For Life S01E05

For Life S01E05
WEBRip | MKV | 1920x1080 | Nederlands | H264 @ 4693 kbps | AAC @ 192 kbps | 54 min 49 s | 1.87 GiB
Subtitles: Nederlands
Genre: Crime, Drama


A prisoner becomes a lawyer, litigating cases for other inmates while fighting to overturn his own life sentence for a crime he didn’t commit.

460d8ecc3adf91d239d393a977d1fe40.mkv (1.9 GB)



General
Unique ID : 79979390580609794917514576572643289661 (0x3C2B78673D36A97281D7493AD4982A3D)
Complete name : ./460d8ecc3adf91d239d393a977d1fe40.mkv
Format : Matroska
Format version : Version 4 / Version 2
File size : 1.87 GiB
Duration : 54 min 49 s
Overall bit rate : 4 886 kb/s
Encoded date : UTC 2021-08-08 07:56:13
Writing application : mkvmerge v57.0.0 ('Till The End') 64-bit
Writing library : libebml v1.4.2 + libmatroska v1.6.4

Video
ID : 1
Format : AVC
Format/Info : Advanced Video Codec
Format profile : High@L4
Format settings : CABAC / 4 Ref Frames
Format settings, CABAC : Yes
Format settings, RefFrames : 4 frames
Format settings, GOP : M=4, N=50
Codec ID : V_MPEG4/ISO/AVC
Duration : 54 min 49 s
Bit rate : 4 694 kb/s
Width : 1 920 pixels
Height : 1 080 pixels
Display aspect ratio : 16:9
Frame rate mode : Constant
Frame rate : 25.000 FPS
Color space : YUV
Chroma subsampling : 4:2:0
Bit depth : 8 bits
Scan type : Progressive
Bits/(Pixel*Frame) : 0.091
Stream size : 1.80 GiB (96%)
Language : Dutch
Default : Yes
Forced : No

Audio
ID : 2
Format : AAC
Format/Info : Advanced Audio Codec
Format profile : LC
Codec ID : A_AAC-2
Duration : 54 min 49 s
Bit rate : 192 kb/s
Channel(s) : 2 channels
Channel positions : Front: L R
Sampling rate : 44.1 kHz
Frame rate : 43.066 FPS (1024 SPF)
Compression mode : Lossy
Stream size : 74.5 MiB (4%)
Language : Dutch
Default : Yes
Forced : No

Text #1
ID : 3
Format : UTF-8
Codec ID : S_TEXT/UTF8
Codec ID/Info : UTF-8 Plain Text
Duration : 54 min 42 s
Bit rate : 104 b/s
Count of elements : 982
Stream size : 41.7 KiB (0%)
Title : nl-tt
Language : Dutch
Default : No
Forced : No

Text #2
ID : 4
Format : UTF-8
Codec ID : S_TEXT/UTF8
Codec ID/Info : UTF-8 Plain Text
Duration : 54 min 42 s
Bit rate : 91 b/s
Count of elements : 871
Stream size : 36.8 KiB (0%)
Title : nl
Language : Dutch
Default : No
Forced : No





For Life S01E05


For Life S01E05


For Life S01E05


For Life S01E05


For Life S01E05

All episodes