Featured TV Shows


Van Helsing S02E02

Posted By: Tavaz
720p (HD) / WEB-DL IMDb
Van Helsing S02E02

Van Helsing S02E02
WEB-DL | MKV | 1280x720 | English | H264 @ 2461 kbps | E-AC-3 @ 640 kbps | 42 min 52 s | 951 MiB
Subtitles: English

Vanessa Helsing, the daughter of famous vampire hunter and Dracula nemesis Abraham Van Helsing is resurrected five years in the future to find out that vampires have taken over the world and that she possesses unique power over them. She is humanity’s last hope to lead an offensive to take back what has been lost.

7b8e5d8e3a214b17be0403671122f1a9.mkv (951.4 MB)



General
Unique ID : 153020704108640179002727168656755212936 (0x731EB732923894FB0BAF3818BE594288)
Complete name : ./7b8e5d8e3a214b17be0403671122f1a9.mkv
Format : Matroska
Format version : Version 4 / Version 2
File size : 951 MiB
Duration : 42 min 52 s
Overall bit rate mode : Variable
Overall bit rate : 3 103 kb/s
Encoded date : UTC 2017-10-16 03:12:18
Writing application : mkvmerge v8.8.0 ('Wind at my back') 64bit
Writing library : libebml v1.3.3 + libmatroska v1.4.4

Video
ID : 1
Format : AVC
Format/Info : Advanced Video Codec
Format profile : High@L3.1
Format settings : CABAC / 5 Ref Frames
Format settings, CABAC : Yes
Format settings, RefFrames : 5 frames
Codec ID : V_MPEG4/ISO/AVC
Duration : 42 min 52 s
Bit rate mode : Variable
Bit rate : 2 461 kb/s
Maximum bit rate : 4 500 kb/s
Width : 1 280 pixels
Height : 720 pixels
Display aspect ratio : 16:9
Frame rate mode : Constant
Frame rate : 23.976 (24000/1001) FPS
Color space : YUV
Chroma subsampling : 4:2:0
Bit depth : 8 bits
Scan type : Progressive
Bits/(Pixel*Frame) : 0.111
Stream size : 755 MiB (79%)
Default : Yes
Forced : No
Color range : Limited
Color primaries : BT.709
Transfer characteristics : BT.709
Matrix coefficients : BT.709

Audio
ID : 2
Format : E-AC-3
Format/Info : Enhanced Audio Coding 3
Format settings, Endianness : Big
Codec ID : A_EAC3
Duration : 42 min 52 s
Bit rate mode : Constant
Bit rate : 640 kb/s
Channel(s) : 6 channels
Channel positions : Front: L C R, Side: L R, LFE
Sampling rate : 48.0 kHz
Frame rate : 187.500 FPS (256 SPF)
Compression mode : Lossy
Stream size : 196 MiB (21%)
Language : English
Service kind : Complete Main
Default : Yes
Forced : No

Text
ID : 3
Format : UTF-8
Codec ID : S_TEXT/UTF8
Codec ID/Info : UTF-8 Plain Text
Duration : 42 min 46 s
Bit rate : 49 b/s
Count of elements : 696
Stream size : 15.5 KiB (0%)
Language : English
Default : No
Forced : No





Van Helsing S02E02


Van Helsing S02E02


Van Helsing S02E02


Van Helsing S02E02


Van Helsing S02E02

All episodes