Index
# A B C D E F G H I J K L M N O P Q R S T U V W X Y Z
Tags
Language
Tags
July 2024
Su Mo Tu We Th Fr Sa
30 1 2 3 4 5 6
7 8 9 10 11 12 13
14 15 16 17 18 19 20
21 22 23 24 25 26 27
28 29 30 31 1 2 3

Featured TV Shows


Borgen S16E07

Posted By: Tavaz
1080p (FullHD) / WEB-DL IMDb
Borgen S16E07

Borgen S16E07
WEB-DL | MKV | 1920x1080 | Nederlands | H264 @ 3933 kbps | AAC @ 128.0 kbps | 43 min 46 s | 1.24 GiB
Subtitles: Nederlands
Genre: Drama


We volgen politiek leider Birgitte Nyborg die onverwachts verkozen wordt tot eerste vrouwelijke premier van Denemarken, maar er al snel achter komt dat haar nieuw verworven rechten en plichten hun tol eisen van haar privéleven en haar dierbaren.

Verborgen.verleden.S16E07.DUTCH.1080p.WEB-DL.AAC2.0.x264-UGDV.mkv (1.2 GB)



General
Unique ID : 49162618280506029917282457822205570805 (0x24FC6038F4EBA76AE69B5505D7EBEEF5)
Complete name : ./Verborgen.verleden.S16E07.DUTCH.1080p.WEB-DL.AAC2.0.x264-UGDV.mkv
Format : Matroska
Format version : Version 4
File size : 1.24 GiB
Duration : 43 min 46 s
Overall bit rate : 4 064 kb/s
Writing application : mkvmerge v75.0.0 ('Goliath') 64-bit
Writing library : libebml v1.4.4 + libmatroska v1.7.1

Video
ID : 1
Format : AVC
Format/Info : Advanced Video Codec
Format profile : High@L4.1
Format settings : CABAC / 4 Ref Frames
Format settings, CABAC : Yes
Format settings, Reference frames : 4 frames
Codec ID : V_MPEG4/ISO/AVC
Duration : 43 min 46 s
Bit rate : 3 933 kb/s
Width : 1 920 pixels
Height : 1 080 pixels
Display aspect ratio : 16:9
Frame rate mode : Constant
Frame rate : 25.000 FPS
Color space : YUV
Chroma subsampling : 4:2:0
Bit depth : 8 bits
Scan type : Progressive
Bits/(Pixel*Frame) : 0.076
Stream size : 1.20 GiB (97%)
Writing library : x264 core 163
Encoding settings : cabac=1 / ref=2 / deblock=1:0:0 / analyse=0x3:0x113 / me=hex / subme=7 / psy=1 / psy_rd=1.00:0.00 / mixed_ref=1 / me_range=16 / chroma_me=1 / trellis=1 / 8x8dct=1 / cqm=0 / deadzone=21,11 / fast_pskip=1 / chroma_qp_offset=-2 / threads=34 / lookahead_threads=5 / sliced_threads=0 / nr=0 / decimate=1 / interlaced=0 / bluray_compat=0 / constrained_intra=0 / bframes=3 / b_pyramid=2 / b_adapt=1 / b_bias=0 / direct=1 / weightb=1 / open_gop=0 / weightp=2 / keyint=50 / keyint_min=5 / scenecut=0 / intra_refresh=0 / rc_lookahead=50 / rc=crf / mbtree=0 / crf=23.0 / qcomp=0.60 / qpmin=0 / qpmax=69 / qpstep=4 / vbv_maxrate=8000 / vbv_bufsize=10000 / crf_max=0.0 / nal_hrd=none / filler=0 / ip_ratio=1.40 / pb_ratio=1.30 / aq=1:1.00
Default : Yes
Forced : No
Color range : Limited
Color primaries : BT.709
Transfer characteristics : BT.709
Matrix coefficients : BT.709

Audio
ID : 2
Format : AAC LC
Format/Info : Advanced Audio Codec Low Complexity
Codec ID : A_AAC-2
Duration : 43 min 46 s
Bit rate : 128 kb/s
Channel(s) : 2 channels
Channel layout : L R
Sampling rate : 48.0 kHz
Frame rate : 46.875 FPS (1024 SPF)
Compression mode : Lossy
Stream size : 40.1 MiB (3%)
Language : Dutch
Default : Yes
Forced : No

Text
ID : 3
Format : UTF-8
Codec ID : S_TEXT/UTF8
Codec ID/Info : UTF-8 Plain Text
Duration : 43 min 46 s
Bit rate : 91 b/s
Frame rate : 0.234 FPS
Count of elements : 615
Stream size : 29.3 KiB (0%)
Language : Dutch
Default : Yes
Forced : No





Borgen S16E07


Borgen S16E07


Borgen S16E07


Borgen S16E07


Borgen S16E07

All episodes