Featured TV Shows


Vikings S05E02

Posted By: Tavaz
SD / BDRip IMDb
Vikings S05E02

Vikings S05E02
BDRip | MKV | 720x404 | French | H264 @ 872 kbps | AAC @ 127 kbps | 44 min 18 s | 318 MiB
Subtitles: French
Genre: Drame

Les exploits d'un groupe de vikings de la fin du 8ème siècle jusqu'au milieu du 11ème, mené par Ragnar Lodbrok, l'un des plus populaires héros viking de tous les temps, qui a régné quelques temps sur le Danemark et la Suède…

vikings.s05e02.french.bdrip.x264-sodapop.mkv (317.8 MB)
vikings.s05e02.french.bdrip.x264-sodapop.sample.mkv (8.5 MB)



General
Unique ID : 100565992677759312059091345677904910977 (0x4BA84E404AA83E5F27C11B9BC1561A81)
Complete name : ./vikings.s05e02.french.bdrip.x264-sodapop.mkv
Format : Matroska
Format version : Version 4 / Version 2
File size : 318 MiB
Duration : 44 min 18 s
Overall bit rate : 1 003 kb/s
Encoded date : UTC 2018-06-24 16:40:24
Writing application : mkvmerge v19.0.0 ('Brave Captain') 64-bit
Writing library : libebml v1.3.5 + libmatroska v1.4.8

Video
ID : 1
Format : AVC
Format/Info : Advanced Video Codec
Format profile : High@L3.1
Format settings : CABAC / 5 Ref Frames
Format settings, CABAC : Yes
Format settings, RefFrames : 5 frames
Codec ID : V_MPEG4/ISO/AVC
Duration : 44 min 18 s
Bit rate : 873 kb/s
Width : 720 pixels
Height : 404 pixels
Display aspect ratio : 16:9
Frame rate mode : Constant
Frame rate : 23.976 (24000/1001) FPS
Color space : YUV
Chroma subsampling : 4:2:0
Bit depth : 8 bits
Scan type : Progressive
Bits/(Pixel*Frame) : 0.125
Stream size : 277 MiB (87%)
Writing library : x264 core 155 r2901 7d0ff22
Encoding settings : cabac=1 / ref=5 / deblock=1:-2:-2 / analyse=0x3:0x133 / me=umh / subme=8 / psy=1 / psy_rd=1.00:0.00 / mixed_ref=1 / me_range=16 / chroma_me=1 / trellis=2 / 8x8dct=1 / cqm=0 / deadzone=21,11 / fast_pskip=0 / chroma_qp_offset=-2 / threads=12 / lookahead_threads=2 / sliced_threads=0 / nr=0 / decimate=1 / interlaced=0 / bluray_compat=0 / constrained_intra=0 / bframes=3 / b_pyramid=2 / b_adapt=1 / b_bias=0 / direct=3 / weightb=1 / open_gop=0 / weightp=2 / keyint=240 / keyint_min=23 / scenecut=40 / intra_refresh=0 / rc_lookahead=50 / rc=crf / mbtree=1 / crf=19.0 / qcomp=0.60 / qpmin=0 / qpmax=69 / qpstep=4 / ip_ratio=1.40 / aq=1:0.70
Language : English
Default : Yes
Forced : No
Color range : Limited
Matrix coefficients : BT.709

Audio
ID : 2
Format : AAC
Format/Info : Advanced Audio Codec
Format profile : LC
Codec ID : A_AAC-2
Duration : 44 min 18 s
Bit rate : 128 kb/s
Channel(s) : 2 channels
Channel positions : Front: L R
Sampling rate : 48.0 kHz
Frame rate : 46.875 FPS (1024 SPF)
Compression mode : Lossy
Delay relative to video : 9 ms
Stream size : 40.5 MiB (13%)
Title : French AAC
Language : French
Default : Yes
Forced : No

Text
ID : 3
Format : UTF-8
Codec ID : S_TEXT/UTF8
Codec ID/Info : UTF-8 Plain Text
Duration : 5 min 59 s
Bit rate : 5 b/s
Count of elements : 7
Stream size : 232 Bytes (0%)
Title : Forced
Language : French
Default : Yes
Forced : No

Menu
00:00:00.000 : en:00:00:00.000
00:02:38.116 : en:00:02:38.116
00:07:40.794 : en:00:07:40.794
00:10:59.659 : en:00:10:59.659
00:16:37.330 : en:00:16:37.330
00:21:28.162 : en:00:21:28.162
00:23:46.216 : en:00:23:46.216
00:29:18.673 : en:00:29:18.673
00:31:20.503 : en:00:31:20.503
00:35:21.786 : en:00:35:21.786
00:38:25.261 : en:00:38:25.261
00:43:16.427 : en:00:43:16.427





Vikings S05E02


Vikings S05E02


Vikings S05E02


Vikings S05E02


Vikings S05E02

All episodes