Featured TV Shows


Vikings S05E06

Posted By: Tavaz
SD / WEB-DL IMDb
Vikings S05E06

Vikings S05E06
WEB-DL | MKV | 720x406 | French | H264 @ 903 kbps | AAC @ 160 kbps | 46 min 53 s | 358 MiB
Subtitles: French
Genre: Drame

Les exploits d'un groupe de vikings de la fin du 8ème siècle jusqu'au milieu du 11ème, mené par Ragnar Lodbrok, l'un des plus populaires héros viking de tous les temps, qui a régné quelques temps sur le Danemark et la Suède…

Vikings.S05E06.FRENCH.LD.AMZN.WEB-DL.x264-FRATERNiTY.mkv (357.5 MB)



General
Unique ID : 268150290457221396528923927799127821686 (0xC9BBDE0DD884AFADF1EB49E46BDF4D76)
Complete name : ./Vikings.S05E06.FRENCH.LD.AMZN.WEB-DL.x264-FRATERNiTY.mkv
Format : Matroska
Format version : Version 4 / Version 2
File size : 358 MiB
Duration : 46 min 53 s
Overall bit rate : 1 066 kb/s
Movie name : Vikings.S05E06.FRENCH.LD.AMZN.WEB-DL.x264-FRATERNiTY
Encoded date : UTC 2017-12-30 17:04:07
Writing application : mkvmerge v19.0.0 ('Brave Captain') 64-bit
Writing library : libebml v1.3.5 + libmatroska v1.4.8

Video
ID : 1
Format : AVC
Format/Info : Advanced Video Codec
Format profile : High@L3.1
Format settings : CABAC / 5 Ref Frames
Format settings, CABAC : Yes
Format settings, RefFrames : 5 frames
Codec ID : V_MPEG4/ISO/AVC
Duration : 46 min 53 s
Bit rate : 904 kb/s
Width : 720 pixels
Height : 406 pixels
Display aspect ratio : 16:9
Frame rate mode : Constant
Frame rate : 23.976 (24000/1001) FPS
Color space : YUV
Chroma subsampling : 4:2:0
Bit depth : 8 bits
Scan type : Progressive
Bits/(Pixel*Frame) : 0.129
Stream size : 303 MiB (85%)
Title : Vikings.S05E06.FRENCH.LD.AMZN.WEB-DL.x264-FRATERNiTY
Writing library : x264 core 152 r2851 ba24899
Encoding settings : cabac=1 / ref=5 / deblock=1:0:0 / analyse=0x3:0x113 / me=hex / subme=9 / psy=1 / psy_rd=1.00:0.00 / mixed_ref=1 / me_range=16 / chroma_me=1 / trellis=1 / 8x8dct=1 / cqm=0 / deadzone=21,11 / fast_pskip=1 / chroma_qp_offset=-2 / threads=12 / lookahead_threads=1 / sliced_threads=0 / nr=0 / decimate=1 / interlaced=0 / bluray_compat=0 / constrained_intra=0 / bframes=3 / b_pyramid=2 / b_adapt=1 / b_bias=0 / direct=1 / weightb=1 / open_gop=0 / weightp=2 / keyint=240 / keyint_min=24 / scenecut=40 / intra_refresh=0 / rc_lookahead=50 / rc=crf / mbtree=1 / crf=19.0 / qcomp=0.60 / qpmin=0 / qpmax=69 / qpstep=4 / ip_ratio=1.40 / aq=1:1.00
Language : French
Default : Yes
Forced : No
Color range : Limited
Matrix coefficients : BT.709

Audio
ID : 2
Format : AAC
Format/Info : Advanced Audio Codec
Format profile : LC
Codec ID : A_AAC-2
Duration : 46 min 53 s
Bit rate : 160 kb/s
Channel(s) : 2 channels
Channel positions : Front: L R
Sampling rate : 48.0 kHz
Frame rate : 46.875 FPS (1024 SPF)
Compression mode : Lossy
Delay relative to video : 20 ms
Stream size : 53.7 MiB (15%)
Title : Vikings.S05E06.FRENCH.LD.AMZN.WEB-DL.x264-FRATERNiTY
Language : French
Default : Yes
Forced : No

Text
ID : 3
Format : UTF-8
Codec ID : S_TEXT/UTF8
Codec ID/Info : UTF-8 Plain Text
Duration : 6 min 14 s
Bit rate : 16 b/s
Count of elements : 13
Stream size : 782 Bytes (0%)
Title : French.Forced
Language : French
Default : Yes
Forced : Yes

Menu
00:00:00.000 : en:Vorspann
00:00:50.000 : en:Szene 2
00:01:42.000 : en:Szene 3
00:07:22.000 : en:Szene 4
00:09:50.000 : en:Szene 5
00:12:36.000 : en:Szene 6
00:16:43.000 : en:Szene 7
00:17:41.000 : en:Szene 8
00:19:24.000 : en:Szene 9
00:20:40.000 : en:Szene 10
00:22:35.000 : en:Szene 11
00:23:25.000 : en:Szene 12
00:25:07.000 : en:Szene 13
00:27:45.000 : en:Szene 14
00:30:51.000 : en:Szene 15
00:33:11.000 : en:Szene 16
00:37:30.000 : en:Szene 17
00:39:36.000 : en:Szene 18
00:42:32.000 : en:Szene 19
00:42:51.000 : en:Szene 20
00:45:52.000 : en:Abspann





Vikings S05E06


Vikings S05E06


Vikings S05E06


Vikings S05E06


Vikings S05E06

All episodes