Featured TV Shows


Vikings S05E07

Posted By: Tavaz
SD / WEB-DL IMDb
Vikings S05E07

Vikings S05E07
WEB-DL | MKV | 720x406 | French | H264 @ 643 kbps | AAC @ 160 kbps | 44 min 49 s | 258 MiB
Subtitles: French
Genre: Drame

Les exploits d'un groupe de vikings de la fin du 8ème siècle jusqu'au milieu du 11ème, mené par Ragnar Lodbrok, l'un des plus populaires héros viking de tous les temps, qui a régné quelques temps sur le Danemark et la Suède…

Vikings.S05E07.FRENCH.LD.AMZN.WEB-DL.x264-FRATERNiTY.mkv (258.3 MB)



General
Unique ID : 156169927223818297181116812369455675915 (0x757D3BE2877FC5932508D6C2161AFA0B)
Complete name : ./Vikings.S05E07.FRENCH.LD.AMZN.WEB-DL.x264-FRATERNiTY.mkv
Format : Matroska
Format version : Version 4 / Version 2
File size : 258 MiB
Duration : 44 min 49 s
Overall bit rate : 806 kb/s
Movie name : Vikings.S05E07.FRENCH.LD.AMZN.WEB-DL.x264-FRATERNiTY
Encoded date : UTC 2018-01-05 08:08:32
Writing application : mkvmerge v19.0.0 ('Brave Captain') 64-bit
Writing library : libebml v1.3.5 + libmatroska v1.4.8

Video
ID : 1
Format : AVC
Format/Info : Advanced Video Codec
Format profile : High@L3.1
Format settings : CABAC / 5 Ref Frames
Format settings, CABAC : Yes
Format settings, RefFrames : 5 frames
Codec ID : V_MPEG4/ISO/AVC
Duration : 44 min 49 s
Bit rate : 643 kb/s
Width : 720 pixels
Height : 406 pixels
Display aspect ratio : 16:9
Frame rate mode : Constant
Frame rate : 23.976 (24000/1001) FPS
Color space : YUV
Chroma subsampling : 4:2:0
Bit depth : 8 bits
Scan type : Progressive
Bits/(Pixel*Frame) : 0.092
Stream size : 206 MiB (80%)
Title : Vikings.S05E07.FRENCH.LD.AMZN.WEB-DL.x264-FRATERNiTY
Writing library : x264 core 152 r2851 ba24899
Encoding settings : cabac=1 / ref=5 / deblock=1:0:0 / analyse=0x3:0x113 / me=hex / subme=9 / psy=1 / psy_rd=1.00:0.00 / mixed_ref=1 / me_range=16 / chroma_me=1 / trellis=1 / 8x8dct=1 / cqm=0 / deadzone=21,11 / fast_pskip=1 / chroma_qp_offset=-2 / threads=12 / lookahead_threads=1 / sliced_threads=0 / nr=0 / decimate=1 / interlaced=0 / bluray_compat=0 / constrained_intra=0 / bframes=3 / b_pyramid=2 / b_adapt=1 / b_bias=0 / direct=1 / weightb=1 / open_gop=0 / weightp=2 / keyint=240 / keyint_min=24 / scenecut=40 / intra_refresh=0 / rc_lookahead=50 / rc=crf / mbtree=1 / crf=19.0 / qcomp=0.60 / qpmin=0 / qpmax=69 / qpstep=4 / ip_ratio=1.40 / aq=1:1.00
Language : French
Default : Yes
Forced : No
Color range : Limited
Color primaries : BT.709
Transfer characteristics : BT.709
Matrix coefficients : BT.709

Audio
ID : 2
Format : AAC
Format/Info : Advanced Audio Codec
Format profile : LC
Codec ID : A_AAC-2
Duration : 44 min 49 s
Bit rate : 160 kb/s
Channel(s) : 2 channels
Channel positions : Front: L R
Sampling rate : 48.0 kHz
Frame rate : 46.875 FPS (1024 SPF)
Compression mode : Lossy
Delay relative to video : 20 ms
Stream size : 51.3 MiB (20%)
Title : Vikings.S05E07.FRENCH.LD.AMZN.WEB-DL.x264-FRATERNiTY
Language : French
Default : Yes
Forced : No

Text
ID : 3
Format : UTF-8
Codec ID : S_TEXT/UTF8
Codec ID/Info : UTF-8 Plain Text
Duration : 28 s 279 ms
Bit rate : 106 b/s
Count of elements : 5
Stream size : 378 Bytes (0%)
Title : French.Forced
Language : French
Default : Yes
Forced : Yes

Menu
00:00:00.000 : en:Opening Credits
00:00:51.000 : en:Waiting for the full moon
00:01:38.000 : en:Bjorn arrives home
00:03:28.000 : en:The journey to find the land of Gods
00:04:00.000 : en:Welcome home and fight the war
00:08:59.000 : en:The new settlement
00:10:56.000 : en:It's finished
00:17:09.000 : en:A talk between mother and son
00:19:02.000 : en:Fate or free will
00:22:06.000 : en:The happiest man in Midgard
00:23:51.000 : en:Waiting for a sign
00:24:55.000 : en:King Harald shares the news
00:25:28.000 : en:Bjorn has his moment with princess Snaefrid
00:30:02.000 : en:A new kind of world
00:31:58.000 : en:Reinforcement for the war
00:32:17.000 : en:Alfred shares his thoughts at the monastery
00:35:47.000 : en:The moon analogy
00:39:13.000 : en:The strategy to defend Kattegat
00:41:40.000 : en:Praying with the father
00:43:24.000 : en:It's time
00:43:48.000 : en:End Credits





Vikings S05E07


Vikings S05E07


Vikings S05E07


Vikings S05E07


Vikings S05E07

All episodes