Featured TV Shows


Vikings S05E08

Posted By: Tavaz
SD / WEB-DL IMDb
Vikings S05E08

Vikings S05E08
WEB-DL | MKV | 720x406 | French | H264 @ 1069 kbps | AAC @ 159 kbps | 45 min 35 s | 402 MiB
Subtitles: French
Genre: Drame

Les exploits d'un groupe de vikings de la fin du 8ème siècle jusqu'au milieu du 11ème, mené par Ragnar Lodbrok, l'un des plus populaires héros viking de tous les temps, qui a régné quelques temps sur le Danemark et la Suède…

Vikings.S05E08.FRENCH.LD.AMZN.WEB-DL.x264-FRATERNiTY.mkv (401.8 MB)



General
Unique ID : 247580520326582766894691807694854886764 (0xBA42461614240D6FDF02F99708AD156C)
Complete name : ./Vikings.S05E08.FRENCH.LD.AMZN.WEB-DL.x264-FRATERNiTY.mkv
Format : Matroska
Format version : Version 4 / Version 2
File size : 402 MiB
Duration : 45 min 35 s
Overall bit rate : 1 232 kb/s
Movie name : Vikings.S05E08.FRENCH.LD.AMZN.WEB-DL.x264-FRATERNiTY
Encoded date : UTC 2018-01-12 07:09:25
Writing application : mkvmerge v19.0.0 ('Brave Captain') 64-bit
Writing library : libebml v1.3.5 + libmatroska v1.4.8

Video
ID : 1
Format : AVC
Format/Info : Advanced Video Codec
Format profile : High@L3.1
Format settings : CABAC / 5 Ref Frames
Format settings, CABAC : Yes
Format settings, RefFrames : 5 frames
Codec ID : V_MPEG4/ISO/AVC
Duration : 45 min 35 s
Bit rate : 1 070 kb/s
Width : 720 pixels
Height : 406 pixels
Display aspect ratio : 16:9
Frame rate mode : Constant
Frame rate : 23.976 (24000/1001) FPS
Color space : YUV
Chroma subsampling : 4:2:0
Bit depth : 8 bits
Scan type : Progressive
Bits/(Pixel*Frame) : 0.153
Stream size : 349 MiB (87%)
Title : Vikings.S05E08.FRENCH.LD.AMZN.WEB-DL.x264-FRATERNiTY
Writing library : x264 core 152 r2851 ba24899
Encoding settings : cabac=1 / ref=5 / deblock=1:0:0 / analyse=0x3:0x113 / me=hex / subme=9 / psy=1 / psy_rd=1.00:0.00 / mixed_ref=1 / me_range=16 / chroma_me=1 / trellis=1 / 8x8dct=1 / cqm=0 / deadzone=21,11 / fast_pskip=1 / chroma_qp_offset=-2 / threads=12 / lookahead_threads=1 / sliced_threads=0 / nr=0 / decimate=1 / interlaced=0 / bluray_compat=0 / constrained_intra=0 / bframes=3 / b_pyramid=2 / b_adapt=1 / b_bias=0 / direct=1 / weightb=1 / open_gop=0 / weightp=2 / keyint=240 / keyint_min=24 / scenecut=40 / intra_refresh=0 / rc_lookahead=50 / rc=crf / mbtree=1 / crf=19.0 / qcomp=0.60 / qpmin=0 / qpmax=69 / qpstep=4 / ip_ratio=1.40 / aq=1:1.00
Language : French
Default : Yes
Forced : No
Color range : Limited
Color primaries : BT.709
Transfer characteristics : BT.709
Matrix coefficients : BT.709

Audio
ID : 2
Format : AAC
Format/Info : Advanced Audio Codec
Format profile : LC
Codec ID : A_AAC-2
Duration : 45 min 35 s
Bit rate : 160 kb/s
Channel(s) : 2 channels
Channel positions : Front: L R
Sampling rate : 48.0 kHz
Frame rate : 46.875 FPS (1024 SPF)
Compression mode : Lossy
Delay relative to video : 20 ms
Stream size : 52.2 MiB (13%)
Title : Vikings.S05E08.FRENCH.LD.AMZN.WEB-DL.x264-FRATERNiTY
Language : French
Default : Yes
Forced : No

Text
ID : 3
Format : UTF-8
Codec ID : S_TEXT/UTF8
Codec ID/Info : UTF-8 Plain Text
Duration : 16 min 19 s
Bit rate : 9 b/s
Count of elements : 22
Stream size : 1.11 KiB (0%)
Title : French.Forced
Language : French
Default : Yes
Forced : Yes

Menu
00:00:00.000 : en:Vorspann
00:00:50.000 : en:Szene 2
00:03:23.000 : en:Szene 3
00:05:18.000 : en:Szene 4
00:08:58.000 : en:Szene 5
00:11:24.000 : en:Szene 6
00:15:36.000 : en:Szene 7
00:16:10.000 : en:Szene 8
00:21:42.000 : en:Szene 9
00:26:25.000 : en:Szene 10
00:28:38.000 : en:Szene 11
00:29:29.000 : en:Szene 12
00:34:32.000 : en:Szene 13
00:39:42.000 : en:Szene 14
00:44:34.000 : en:Abspann





Vikings S05E08


Vikings S05E08


Vikings S05E08


Vikings S05E08


Vikings S05E08

All episodes