Featured TV Shows


Vikings S05E09

Posted By: Tavaz
SD / WEB-DL IMDb
Vikings S05E09

Vikings S05E09
WEB-DL | MKV | 720x406 | French | H264 @ 660 kbps | AAC @ 160 kbps | 46 min 0 s | 271 MiB
Genre: Drame

Les exploits d'un groupe de vikings de la fin du 8ème siècle jusqu'au milieu du 11ème, mené par Ragnar Lodbrok, l'un des plus populaires héros viking de tous les temps, qui a régné quelques temps sur le Danemark et la Suède…

Vikings.S05E09.FRENCH.LD.AMZN.WEB-DL.x264-FRATERNiTY.mkv (270.7 MB)



General
Unique ID : 114021805258960163030570130252685364492 (0x55C7CD082F2CB3324C83B786E09BCD0C)
Complete name : ./Vikings.S05E09.FRENCH.LD.AMZN.WEB-DL.x264-FRATERNiTY.mkv
Format : Matroska
Format version : Version 4 / Version 2
File size : 271 MiB
Duration : 46 min 0 s
Overall bit rate : 822 kb/s
Movie name : Vikings.S05E09.FRENCH.LD.AMZN.WEB-DL.x264-FRATERNiTY
Encoded date : UTC 2018-01-19 06:56:32
Writing application : mkvmerge v20.0.0 ('I Am The Sun') 64-bit
Writing library : libebml v1.3.5 + libmatroska v1.4.8

Video
ID : 1
Format : AVC
Format/Info : Advanced Video Codec
Format profile : High@L3.1
Format settings : CABAC / 5 Ref Frames
Format settings, CABAC : Yes
Format settings, RefFrames : 5 frames
Codec ID : V_MPEG4/ISO/AVC
Duration : 46 min 0 s
Bit rate : 660 kb/s
Width : 720 pixels
Height : 406 pixels
Display aspect ratio : 16:9
Frame rate mode : Constant
Frame rate : 23.976 (24000/1001) FPS
Color space : YUV
Chroma subsampling : 4:2:0
Bit depth : 8 bits
Scan type : Progressive
Bits/(Pixel*Frame) : 0.094
Stream size : 217 MiB (80%)
Title : Vikings.S05E09.FRENCH.LD.AMZN.WEB-DL.x264-FRATERNiTY
Writing library : x264 core 152 r2851 ba24899
Encoding settings : cabac=1 / ref=5 / deblock=1:0:0 / analyse=0x3:0x113 / me=hex / subme=9 / psy=1 / psy_rd=1.00:0.00 / mixed_ref=1 / me_range=16 / chroma_me=1 / trellis=1 / 8x8dct=1 / cqm=0 / deadzone=21,11 / fast_pskip=1 / chroma_qp_offset=-2 / threads=12 / lookahead_threads=1 / sliced_threads=0 / nr=0 / decimate=1 / interlaced=0 / bluray_compat=0 / constrained_intra=0 / bframes=3 / b_pyramid=2 / b_adapt=1 / b_bias=0 / direct=1 / weightb=1 / open_gop=0 / weightp=2 / keyint=240 / keyint_min=24 / scenecut=40 / intra_refresh=0 / rc_lookahead=50 / rc=crf / mbtree=1 / crf=19.0 / qcomp=0.60 / qpmin=0 / qpmax=69 / qpstep=4 / ip_ratio=1.40 / aq=1:1.00
Language : French
Default : Yes
Forced : No
Color range : Limited
Color primaries : BT.709
Transfer characteristics : BT.709
Matrix coefficients : BT.709

Audio
ID : 2
Format : AAC
Format/Info : Advanced Audio Codec
Format profile : LC
Codec ID : A_AAC-2
Duration : 46 min 0 s
Bit rate : 160 kb/s
Channel(s) : 2 channels
Channel positions : Front: L R
Sampling rate : 48.0 kHz
Frame rate : 46.875 FPS (1024 SPF)
Compression mode : Lossy
Delay relative to video : 20 ms
Stream size : 52.7 MiB (19%)
Title : Vikings.S05E09.FRENCH.LD.AMZN.WEB-DL.x264-FRATERNiTY
Language : French
Default : Yes
Forced : No

Menu
00:00:00.000 : en:Vorspann
00:00:50.000 : en:Szene 2
00:05:07.000 : en:Szene 3
00:06:27.000 : en:Szene 4
00:08:01.000 : en:Szene 5
00:09:32.000 : en:Szene 6
00:10:39.000 : en:Szene 7
00:12:40.000 : en:Zwischensequenz
00:12:42.000 : en:Szene 9
00:14:43.000 : en:Szene 10
00:17:35.000 : en:Szene 11
00:20:45.000 : en:Szene 12
00:22:54.000 : en:Szene 13
00:25:25.000 : en:Szene 14
00:31:17.000 : en:Szene 15
00:32:44.000 : en:Szene 16
00:40:29.000 : en:Zwischensequenz
00:40:31.000 : en:Szene 18
00:45:00.000 : en:Abspann





Vikings S05E09


Vikings S05E09


Vikings S05E09


Vikings S05E09


Vikings S05E09

All episodes