Featured TV Shows


Vikings S05E10

Posted By: Tavaz
720p (HD) / BDRip IMDb
Vikings S05E10

Vikings S05E10
BDRip | MKV | 1280x720 | French | H264 @ 5936 kbps | DTS @ 768 kbps | 46 min 40 s | 2.19 GiB
Subtitles: French
Genre: Drame

Les exploits d'un groupe de vikings de la fin du 8ème siècle jusqu'au milieu du 11ème, mené par Ragnar Lodbrok, l'un des plus populaires héros viking de tous les temps, qui a régné quelques temps sur le Danemark et la Suède…

vikings.s05e10.french.720p.bluray.x264-sodapop.mkv (2.2 GB)
vikings.s05e10.french.720p.bluray.x264-sodapop.sample.mkv (42.4 MB)



General
Unique ID : 130070705574972707140248686630179885018 (0x61DAB4E8AE866F86AA4CD2A746D2CFDA)
Complete name : ./vikings.s05e10.french.720p.bluray.x264-sodapop.mkv
Format : Matroska
Format version : Version 4 / Version 2
File size : 2.19 GiB
Duration : 46 min 40 s
Overall bit rate : 6 704 kb/s
Encoded date : UTC 2018-06-24 16:12:30
Writing application : mkvmerge v19.0.0 ('Brave Captain') 64-bit
Writing library : libebml v1.3.5 + libmatroska v1.4.8

Video
ID : 1
Format : AVC
Format/Info : Advanced Video Codec
Format profile : High@L4.1
Format settings : CABAC / 5 Ref Frames
Format settings, CABAC : Yes
Format settings, RefFrames : 5 frames
Codec ID : V_MPEG4/ISO/AVC
Duration : 46 min 40 s
Bit rate : 5 936 kb/s
Width : 1 280 pixels
Height : 720 pixels
Display aspect ratio : 16:9
Frame rate mode : Constant
Frame rate : 23.976 (24000/1001) FPS
Color space : YUV
Chroma subsampling : 4:2:0
Bit depth : 8 bits
Scan type : Progressive
Bits/(Pixel*Frame) : 0.269
Stream size : 1.93 GiB (89%)
Writing library : x264 core 155 r2901 7d0ff22
Encoding settings : cabac=1 / ref=5 / deblock=1:0:0 / analyse=0x3:0x133 / me=umh / subme=8 / psy=1 / psy_rd=1.00:0.00 / mixed_ref=1 / me_range=16 / chroma_me=1 / trellis=1 / 8x8dct=1 / cqm=0 / deadzone=21,11 / fast_pskip=1 / chroma_qp_offset=-2 / threads=12 / lookahead_threads=2 / sliced_threads=0 / nr=0 / decimate=1 / interlaced=0 / bluray_compat=0 / constrained_intra=0 / bframes=3 / b_pyramid=2 / b_adapt=1 / b_bias=0 / direct=3 / weightb=1 / open_gop=0 / weightp=2 / keyint=240 / keyint_min=23 / scenecut=40 / intra_refresh=0 / rc_lookahead=50 / rc=2pass / mbtree=1 / bitrate=5936 / ratetol=1.0 / qcomp=0.60 / qpmin=0 / qpmax=69 / qpstep=4 / cplxblur=20.0 / qblur=0.5 / ip_ratio=1.40 / aq=1:1.00
Language : English
Default : Yes
Forced : No

Audio
ID : 2
Format : DTS
Format/Info : Digital Theater Systems
Mode : 16
Format settings, Endianness : Big
Codec ID : A_DTS
Duration : 46 min 38 s
Bit rate mode : Constant
Bit rate : 768 kb/s
Channel(s) : 6 channels
Channel positions : Front: L C R, Side: L R, LFE
Sampling rate : 48.0 kHz
Frame rate : 93.750 FPS (512 SPF)
Bit depth : 24 bits
Compression mode : Lossy
Stream size : 256 MiB (11%)
Title : French DTS 768kbps
Language : French
Default : Yes
Forced : No

Text
ID : 3
Format : UTF-8
Codec ID : S_TEXT/UTF8
Codec ID/Info : UTF-8 Plain Text
Duration : 34 min 37 s
Bit rate : 1 b/s
Count of elements : 13
Stream size : 348 Bytes (0%)
Title : Forced
Language : French
Default : Yes
Forced : No

Menu
00:00:00.000 : en:00:00:00.000
00:02:47.834 : en:00:02:47.834
00:04:22.262 : en:00:04:22.262
00:11:17.760 : en:00:11:17.760
00:14:07.972 : en:00:14:07.972
00:18:45.708 : en:00:18:45.708
00:24:28.592 : en:00:24:28.592
00:28:24.911 : en:00:28:24.911
00:32:17.310 : en:00:32:17.310
00:34:51.548 : en:00:34:51.548
00:39:58.187 : en:00:39:58.187
00:45:28.434 : en:00:45:28.434





Vikings S05E10


Vikings S05E10


Vikings S05E10


Vikings S05E10


Vikings S05E10

All episodes