Featured TV Shows


Vikings S05E10

Posted By: Tavaz
1080p (FullHD) / WEB-DL IMDb
Vikings S05E10

Vikings S05E10
WEB-DL | MKV | 1920x1080 | French | H264 @ 6846 kbps | AC-3 @ 384 kbps | 46 min 27 s | 2.35 GiB
Subtitles: French
Genre: Drame

Les exploits d'un groupe de vikings de la fin du 8ème siècle jusqu'au milieu du 11ème, mené par Ragnar Lodbrok, l'un des plus populaires héros viking de tous les temps, qui a régné quelques temps sur le Danemark et la Suède…

Vikings.S05E10.FRENCH.1080p.AMZN.WEB-DL.DD5.1.H264-FRATERNiTY.mkv (2.3 GB)



General
Unique ID : 323126948909982324392093126051498284745 (0xF317FC96B1E60EA787D58288F483D6C9)
Complete name : ./Vikings.S05E10.FRENCH.1080p.AMZN.WEB-DL.DD5.1.H264-FRATERNiTY.mkv
Format : Matroska
Format version : Version 4 / Version 2
File size : 2.35 GiB
Duration : 46 min 27 s
Overall bit rate mode : Variable
Overall bit rate : 7 232 kb/s
Movie name : Vikings.S05E10.FRENCH.1080p.AMZN.WEB-DL.DD5.1.H264-FRATERNiTY
Encoded date : UTC 2018-01-26 06:48:48
Writing application : mkvmerge v20.0.0 ('I Am The Sun') 64-bit
Writing library : libebml v1.3.5 + libmatroska v1.4.8

Video
ID : 1
Format : AVC
Format/Info : Advanced Video Codec
Format profile : High@L4
Format settings : CABAC / 4 Ref Frames
Format settings, CABAC : Yes
Format settings, RefFrames : 4 frames
Codec ID : V_MPEG4/ISO/AVC
Duration : 46 min 27 s
Bit rate mode : Variable
Bit rate : 6 846 kb/s
Maximum bit rate : 15.0 Mb/s
Width : 1 920 pixels
Height : 1 080 pixels
Display aspect ratio : 16:9
Frame rate mode : Constant
Frame rate : 23.976 (24000/1001) FPS
Color space : YUV
Chroma subsampling : 4:2:0
Bit depth : 8 bits
Scan type : Progressive
Bits/(Pixel*Frame) : 0.138
Stream size : 2.22 GiB (95%)
Title : Vikings.S05E10.FRENCH.1080p.AMZN.WEB-DL.DD5.1.H264-FRATERNiTY
Language : French
Default : Yes
Forced : No
Color range : Limited
Color primaries : BT.709
Transfer characteristics : BT.709
Matrix coefficients : BT.709

Audio
ID : 2
Format : AC-3
Format/Info : Audio Coding 3
Format settings, Endianness : Big
Codec ID : A_AC3
Duration : 46 min 27 s
Bit rate mode : Constant
Bit rate : 384 kb/s
Channel(s) : 6 channels
Channel positions : Front: L C R, Side: L R, LFE
Sampling rate : 48.0 kHz
Frame rate : 31.250 FPS (1536 SPF)
Bit depth : 16 bits
Compression mode : Lossy
Stream size : 128 MiB (5%)
Title : Vikings.S05E10.FRENCH.1080p.AMZN.WEB-DL.DD5.1.H264-FRATERNiTY
Language : French
Service kind : Complete Main
Default : Yes
Forced : No

Text
ID : 3
Format : UTF-8
Codec ID : S_TEXT/UTF8
Codec ID/Info : UTF-8 Plain Text
Duration : 21 min 29 s
Bit rate : 4 b/s
Count of elements : 13
Stream size : 690 Bytes (0%)
Title : French.Forced
Language : French
Default : Yes
Forced : Yes

Menu
00:00:00.000 : en:Szene 1
00:01:55.000 : en:Vorspann
00:02:45.000 : en:Szene 3
00:06:37.000 : en:Szene 4
00:11:20.000 : en:Szene 5
00:14:06.000 : en:Szene 6
00:18:43.000 : en:Zwischensequenz
00:18:44.000 : en:Szene 8
00:19:59.000 : en:Szene 9
00:28:23.000 : en:Szene 10
00:32:21.000 : en:Szene 11
00:34:49.000 : en:Szene 12
00:36:23.000 : en:Szene 13
00:38:54.000 : en:Zwischensequenz
00:38:55.000 : en:Szene 15
00:43:09.000 : en:Szene 16
00:45:26.000 : en:Abspann





Vikings S05E10


Vikings S05E10


Vikings S05E10


Vikings S05E10


Vikings S05E10

All episodes