Featured TV Shows


Vikings S05E10

Posted By: Tavaz
SD / WEB-DL IMDb
Vikings S05E10

Vikings S05E10
WEB-DL | MKV | 720x406 | French | H264 @ 970 kbps | AAC @ 159 kbps | 46 min 27 s | 376 MiB
Subtitles: French
Genre: Drame

Les exploits d'un groupe de vikings de la fin du 8ème siècle jusqu'au milieu du 11ème, mené par Ragnar Lodbrok, l'un des plus populaires héros viking de tous les temps, qui a régné quelques temps sur le Danemark et la Suède…

Vikings.S05E10.FRENCH.LD.AMZN.WEB-DL.x264-FRATERNiTY.mkv (376.4 MB)



General
Unique ID : 322392419737694463142122591556917097108 (0xF28A85812176EA70348DC444B5597294)
Complete name : ./Vikings.S05E10.FRENCH.LD.AMZN.WEB-DL.x264-FRATERNiTY.mkv
Format : Matroska
Format version : Version 4 / Version 2
File size : 376 MiB
Duration : 46 min 27 s
Overall bit rate : 1 133 kb/s
Movie name : Vikings.S05E10.FRENCH.LD.AMZN.WEB-DL.x264-FRATERNiTY
Encoded date : UTC 2018-01-26 06:47:59
Writing application : mkvmerge v20.0.0 ('I Am The Sun') 64-bit
Writing library : libebml v1.3.5 + libmatroska v1.4.8

Video
ID : 1
Format : AVC
Format/Info : Advanced Video Codec
Format profile : High@L3.1
Format settings : CABAC / 5 Ref Frames
Format settings, CABAC : Yes
Format settings, RefFrames : 5 frames
Codec ID : V_MPEG4/ISO/AVC
Duration : 46 min 27 s
Bit rate : 971 kb/s
Width : 720 pixels
Height : 406 pixels
Display aspect ratio : 16:9
Frame rate mode : Constant
Frame rate : 23.976 (24000/1001) FPS
Color space : YUV
Chroma subsampling : 4:2:0
Bit depth : 8 bits
Scan type : Progressive
Bits/(Pixel*Frame) : 0.138
Stream size : 323 MiB (86%)
Title : Vikings.S05E10.FRENCH.LD.AMZN.WEB-DL.x264-FRATERNiTY
Writing library : x264 core 152 r2851 ba24899
Encoding settings : cabac=1 / ref=5 / deblock=1:0:0 / analyse=0x3:0x113 / me=hex / subme=9 / psy=1 / psy_rd=1.00:0.00 / mixed_ref=1 / me_range=16 / chroma_me=1 / trellis=1 / 8x8dct=1 / cqm=0 / deadzone=21,11 / fast_pskip=1 / chroma_qp_offset=-2 / threads=12 / lookahead_threads=1 / sliced_threads=0 / nr=0 / decimate=1 / interlaced=0 / bluray_compat=0 / constrained_intra=0 / bframes=3 / b_pyramid=2 / b_adapt=1 / b_bias=0 / direct=1 / weightb=1 / open_gop=0 / weightp=2 / keyint=240 / keyint_min=24 / scenecut=40 / intra_refresh=0 / rc_lookahead=50 / rc=crf / mbtree=1 / crf=19.0 / qcomp=0.60 / qpmin=0 / qpmax=69 / qpstep=4 / ip_ratio=1.40 / aq=1:1.00
Language : French
Default : Yes
Forced : No
Color range : Limited
Color primaries : BT.709
Transfer characteristics : BT.709
Matrix coefficients : BT.709

Audio
ID : 2
Format : AAC
Format/Info : Advanced Audio Codec
Format profile : LC
Codec ID : A_AAC-2
Duration : 46 min 27 s
Bit rate : 160 kb/s
Channel(s) : 2 channels
Channel positions : Front: L R
Sampling rate : 48.0 kHz
Frame rate : 46.875 FPS (1024 SPF)
Compression mode : Lossy
Delay relative to video : 20 ms
Stream size : 53.2 MiB (14%)
Title : Vikings.S05E10.FRENCH.LD.AMZN.WEB-DL.x264-FRATERNiTY
Language : French
Default : Yes
Forced : No

Text
ID : 3
Format : UTF-8
Codec ID : S_TEXT/UTF8
Codec ID/Info : UTF-8 Plain Text
Duration : 21 min 29 s
Bit rate : 4 b/s
Count of elements : 13
Stream size : 690 Bytes (0%)
Title : French.Forced
Language : French
Default : Yes
Forced : Yes

Menu
00:00:00.000 : en:Szene 1
00:01:55.000 : en:Vorspann
00:02:45.000 : en:Szene 3
00:06:37.000 : en:Szene 4
00:11:20.000 : en:Szene 5
00:14:06.000 : en:Szene 6
00:18:43.000 : en:Zwischensequenz
00:18:44.000 : en:Szene 8
00:19:59.000 : en:Szene 9
00:28:23.000 : en:Szene 10
00:32:21.000 : en:Szene 11
00:34:49.000 : en:Szene 12
00:36:23.000 : en:Szene 13
00:38:54.000 : en:Zwischensequenz
00:38:55.000 : en:Szene 15
00:43:09.000 : en:Szene 16
00:45:26.000 : en:Abspann





Vikings S05E10


Vikings S05E10


Vikings S05E10


Vikings S05E10


Vikings S05E10

All episodes