Featured TV Shows


Vikings S05E20

Posted By: Tavaz
720p (HD) / WEBRip IMDb
Vikings S05E20

Vikings S05E20
WEB-DL | MKV | 1280x720 | French | H264 @ 3923 kbps | AC-3 @ 384 kbps | 44 min 42 s | 1.35 GiB
Genre: Drame

Les exploits d'un groupe de vikings de la fin du 8ème siècle jusqu'au milieu du 11ème, mené par Ragnar Lodbrok, l'un des plus populaires héros viking de tous les temps, qui a régné quelques temps sur le Danemark et la Suède…

Vikings.S05E20.FiNAL.FRENCH.720p.AMZN.WEB-DL.DD5.1.H264-FRATERNiTY.mkv (1.3 GB)



General
Unique ID : 183668703821438648198612798443404869222 (0x8A2D4E3F514E3C67C4FDBF723C673E66)
Complete name : ./Vikings.S05E20.FiNAL.FRENCH.720p.AMZN.WEB-DL.DD5.1.H264-FRATERNiTY.mkv
Format : Matroska
Format version : Version 4 / Version 2
File size : 1.35 GiB
Duration : 44 min 42 s
Overall bit rate mode : Constant
Overall bit rate : 4 310 kb/s
Movie name : Vikings.S05E20.FiNAL.FRENCH.720p.AMZN.WEB-DL.DD5.1.H264-FRATERNiTY
Encoded date : UTC 2019-02-01 15:07:10
Writing application : mkvmerge v29.0.0 ('Like It Or Not') 64-bit
Writing library : libebml v1.3.6 + libmatroska v1.4.9

Video
ID : 1
Format : AVC
Format/Info : Advanced Video Codec
Format profile : High@L3.1
Format settings : CABAC / 4 Ref Frames
Format settings, CABAC : Yes
Format settings, RefFrames : 4 frames
Codec ID : V_MPEG4/ISO/AVC
Duration : 44 min 42 s
Bit rate mode : Constant
Bit rate : 3 924 kb/s
Nominal bit rate : 6 000 kb/s
Width : 1 280 pixels
Height : 720 pixels
Display aspect ratio : 16:9
Frame rate mode : Constant
Frame rate : 23.976 (24000/1001) FPS
Color space : YUV
Chroma subsampling : 4:2:0
Bit depth : 8 bits
Scan type : Progressive
Bits/(Pixel*Frame) : 0.178
Stream size : 1.23 GiB (91%)
Title : Vikings.S05E20.FiNAL.FRENCH.720p.AMZN.WEB-DL.DD5.1.H264-FRATERNiTY
Language : French
Default : Yes
Forced : No
Color range : Limited
Color primaries : BT.709
Transfer characteristics : BT.709
Matrix coefficients : BT.709

Audio
ID : 2
Format : AC-3
Format/Info : Audio Coding 3
Format settings, Endianness : Big
Codec ID : A_AC3
Duration : 44 min 42 s
Bit rate mode : Constant
Bit rate : 384 kb/s
Channel(s) : 6 channels
Channel positions : Front: L C R, Side: L R, LFE
Sampling rate : 48.0 kHz
Frame rate : 31.250 FPS (1536 SPF)
Bit depth : 16 bits
Compression mode : Lossy
Stream size : 123 MiB (9%)
Title : Vikings.S05E20.FiNAL.FRENCH.720p.AMZN.WEB-DL.DD5.1.H264-FRATERNiTY
Language : French
Service kind : Complete Main
Default : Yes
Forced : No





Vikings S05E20


Vikings S05E20


Vikings S05E20


Vikings S05E20


Vikings S05E20

All episodes