Featured TV Shows


Vikings S06E03

Posted By: Tavaz
1080p (FullHD) / HDTV IMDb
Vikings S06E03

Vikings S06E03
HDTV | MKV | 1920x1080 | French / English | H264 @ 8262 kbps | AAC @ 62 kbps | 42 min 42 s | 2.50 GiB
Subtitles: French
Genre: Drama


Vikings follows the adventures of Ragnar Lothbrok, the greatest hero of his age. The series tells the sagas of Ragnar's band of Viking brothers and his family, as he rises to become King of the Viking tribes. As well as being a fearless warrior, Ragnar embodies the Norse traditions of devotion to the gods. Legend has it that he was a direct descendant of Odin, the god of war and warriors.

e86b5dc35723402a897c9d30a3d6350a.mkv (2.5 GB)



General
Unique ID : 258743619311605697252410824930053661837 (0xC2A8355C014966CAC72868CEE1C9248D)
Complete name : ./e86b5dc35723402a897c9d30a3d6350a.mkv
Format : Matroska
Format version : Version 4 / Version 2
File size : 2.50 GiB
Duration : 42 min 42 s
Overall bit rate : 8 392 kb/s
Encoded date : UTC 2019-12-14 18:14:16
Writing application : mkvmerge v41.0.0 ('Smarra') 64-bit
Writing library : libebml v1.3.9 + libmatroska v1.5.2

Video
ID : 1
Format : AVC
Format/Info : Advanced Video Codec
Format profile : High@L4
Format settings : CABAC / 4 Ref Frames
Format settings, CABAC : Yes
Format settings, RefFrames : 4 frames
Codec ID : V_MPEG4/ISO/AVC
Duration : 42 min 42 s
Bit rate : 8 262 kb/s
Width : 1 920 pixels
Height : 1 080 pixels
Display aspect ratio : 16:9
Frame rate mode : Variable
Frame rate : 50.000 FPS
Original frame rate : 25.000 FPS
Standard : Component
Color space : YUV
Chroma subsampling : 4:2:0
Bit depth : 8 bits
Scan type : Interlaced
Scan type, store method : Separated fields
Scan order : Top Field First
Bits/(Pixel*Frame) : 0.080
Stream size : 2.46 GiB (98%)
Title : Vikings S06E03
Language : French
Default : Yes
Forced : No
Color range : Limited
Color primaries : BT.709
Transfer characteristics : BT.709
Matrix coefficients : BT.709

Audio #1
ID : 2
Format : AAC
Format/Info : Advanced Audio Codec
Format profile : HE-AAC / LC
Format settings : Explicit
Codec ID : A_AAC-2
Duration : 42 min 42 s
Bit rate : 62.7 kb/s
Channel(s) : 2 channels
Channel positions : Front: L R
Sampling rate : 48.0 kHz / 24.0 kHz
Frame rate : 23.438 FPS (1024 SPF)
Compression mode : Lossy
Stream size : 19.1 MiB (1%)
Title : Français HE-AAC 2.0
Language : French
Default : Yes
Forced : No

Audio #2
ID : 3
Format : AAC
Format/Info : Advanced Audio Codec
Format profile : HE-AACv2 / HE-AAC / LC
Format settings : Implicit / Explicit
Codec ID : A_AAC-2
Duration : 42 min 42 s
Bit rate : 62.7 kb/s
Channel(s) : 2 channels / 2 channels / 2 channels
Channel positions : Front: L R / Front: L R / Front: L R
Sampling rate : 48.0 kHz / 48.0 kHz / 24.0 kHz
Frame rate : 23.438 FPS (1024 SPF)
Compression mode : Lossy
Stream size : 19.1 MiB (1%)
Title : Anglais HE-AAC 2.0
Language : English
Default : No
Forced : No

Text
ID : 5
Format : UTF-8
Codec ID : S_TEXT/UTF8
Codec ID/Info : UTF-8 Plain Text
Duration : 42 min 21 s
Bit rate : 37 b/s
Count of elements : 443
Stream size : 11.7 KiB (0%)
Title : Français
Language : French
Default : No
Forced : No





Vikings S06E03


Vikings S06E03


Vikings S06E03


Vikings S06E03


Vikings S06E03

All episodes