Featured TV Shows


Vikings S06E03

Posted By: Tavaz
720p (HD) / WEBRip IMDb
Vikings S06E03

Vikings S06E03
WEBRip | MKV | 1280x720 | French / English | H264 @ 3400 kbps | AAC @ 128 kbps | 42 min 52 s | 1.06 GiB
Subtitles: French
Genre: Drama


Vikings follows the adventures of Ragnar Lothbrok, the greatest hero of his age. The series tells the sagas of Ragnar's band of Viking brothers and his family, as he rises to become King of the Viking tribes. As well as being a fearless warrior, Ragnar embodies the Norse traditions of devotion to the gods. Legend has it that he was a direct descendant of Odin, the god of war and warriors.

9aadabf0e34e408ba1f4a78f8d480331.mkv (1.1 GB)



General
Unique ID : 160179169138873178198017779046318823622 (0x788162C5D4C0245A5E8C654C67DF58C6)
Complete name : ./9aadabf0e34e408ba1f4a78f8d480331.mkv
Format : Matroska
Format version : Version 4 / Version 2
File size : 1.06 GiB
Duration : 42 min 52 s
Overall bit rate : 3 534 kb/s
Encoded date : UTC 2019-12-12 22:43:20
Writing application : mkvmerge v41.0.0 ('Smarra') 64-bit
Writing library : libebml v1.3.9 + libmatroska v1.5.2

Video
ID : 1
Format : AVC
Format/Info : Advanced Video Codec
Format profile : High@L3.1
Format settings : CABAC / 2 Ref Frames
Format settings, CABAC : Yes
Format settings, RefFrames : 2 frames
Format settings, GOP : M=1, N=50
Codec ID : V_MPEG4/ISO/AVC
Duration : 42 min 43 s
Bit rate mode : Constant
Bit rate : 3 400 kb/s
Width : 1 280 pixels
Height : 720 pixels
Display aspect ratio : 16:9
Frame rate mode : Constant
Frame rate : 25.000 FPS
Color space : YUV
Chroma subsampling : 4:2:0
Bit depth : 8 bits
Scan type : Progressive
Bits/(Pixel*Frame) : 0.148
Stream size : 1 005 MiB (93%)
Default : Yes
Forced : No
Color range : Limited
Color primaries : BT.709
Transfer characteristics : BT.709
Matrix coefficients : BT.709

Audio #1
ID : 2
Format : AAC
Format/Info : Advanced Audio Codec
Format profile : LC
Codec ID : A_AAC-2
Duration : 42 min 43 s
Bit rate : 128 kb/s
Channel(s) : 2 channels
Channel positions : Front: L R
Sampling rate : 48.0 kHz
Frame rate : 46.875 FPS (1024 SPF)
Compression mode : Lossy
Stream size : 39.1 MiB (4%)
Title : French
Language : French
Default : Yes
Forced : No

Audio #2
ID : 3
Format : AAC
Format/Info : Advanced Audio Codec
Format profile : LC
Codec ID : A_AAC-2
Duration : 42 min 43 s
Bit rate : 128 kb/s
Channel(s) : 2 channels
Channel positions : Front: L R
Sampling rate : 48.0 kHz
Frame rate : 46.875 FPS (1024 SPF)
Compression mode : Lossy
Stream size : 39.1 MiB (4%)
Title : English
Language : English
Default : No
Forced : No

Text
ID : 4
Format : UTF-8
Codec ID : S_TEXT/UTF8
Codec ID/Info : UTF-8 Plain Text
Duration : 42 min 52 s
Bit rate : 37 b/s
Count of elements : 443
Stream size : 11.7 KiB (0%)
Title : French
Language : French
Default : No
Forced : No





Vikings S06E03


Vikings S06E03


Vikings S06E03


Vikings S06E03


Vikings S06E03

All episodes