Featured TV Shows


Vikings S06E06

Posted By: Tavaz
720p (HD) / WEBRip IMDb
Vikings S06E06

Vikings S06E06
WEBRip | MKV | 1280x720 | English | H264 @ 3499 kbps | AAC @ 96 kbps | 43 min 6 s | 1.08 GiB
Subtitles: English
Genre: Drama


The adventures of Ragnar Lothbrok, the greatest hero of his age. The series tells the sagas of Ragnar's band of Viking brothers and his family, as he rises to become King of the Viking tribes. As well as being a fearless warrior, Ragnar embodies the Norse traditions of devotion to the gods. Legend has it that he was a direct descendant of Odin, the god of war and warriors.

5c1d1a1887c14961b80fa153e16e3acb.mkv (1.1 GB)



General
Unique ID : 106097183235366717180113503439770820752 (0x4FD19300229D75AFFBA789CC0EC32090)
Complete name : ./5c1d1a1887c14961b80fa153e16e3acb.mkv
Format : Matroska
Format version : Version 4 / Version 2
File size : 1.08 GiB
Duration : 43 min 6 s
Overall bit rate : 3 586 kb/s
Encoded date : UTC 2020-01-09 01:24:53
Writing application : mkvmerge v25.0.0 ('Prog Noir') 32-bit
Writing library : libebml v1.3.6 + libmatroska v1.4.9

Video
ID : 1
Format : AVC
Format/Info : Advanced Video Codec
Format profile : High@L4.1
Format settings : CABAC / 2 Ref Frames
Format settings, CABAC : Yes
Format settings, RefFrames : 2 frames
Codec ID : V_MPEG4/ISO/AVC
Duration : 43 min 6 s
Bit rate mode : Constant
Bit rate : 3 500 kb/s
Width : 1 280 pixels
Height : 720 pixels
Display aspect ratio : 16:9
Frame rate mode : Constant
Frame rate : 25.000 FPS
Color space : YUV
Chroma subsampling : 4:2:0
Bit depth : 8 bits
Scan type : Progressive
Bits/(Pixel*Frame) : 0.152
Stream size : 1.05 GiB (97%)
Default : Yes
Forced : No

Audio
ID : 2
Format : AAC
Format/Info : Advanced Audio Codec
Format profile : HE-AAC / LC
Format settings : Explicit
Codec ID : A_AAC-2
Duration : 43 min 6 s
Bit rate : 96.0 kb/s
Channel(s) : 2 channels
Channel positions : Front: L R
Sampling rate : 44.1 kHz / 22.05 kHz
Frame rate : 21.533 FPS (1024 SPF)
Compression mode : Lossy
Stream size : 29.2 MiB (3%)
Title : English
Language : English
Default : Yes
Forced : No

Text
ID : 3
Format : UTF-8
Codec ID : S_TEXT/UTF8
Codec ID/Info : UTF-8 Plain Text
Duration : 42 min 43 s
Bit rate : 37 b/s
Count of elements : 490
Stream size : 11.7 KiB (0%)
Title : English
Language : English
Default : No
Forced : No





Vikings S06E06


Vikings S06E06


Vikings S06E06


Vikings S06E06


Vikings S06E06

All episodes