Featured TV Shows


Vikings S06E07

Posted By: Tavaz
720p (HD) / WEBRip IMDb
Vikings S06E07

Vikings S06E07
WEBRip | MKV | 1024x576 | English | H264 @ 1600 kbps | AAC @ 96 kbps | 42 min 9 s | 511 MiB
Subtitles: English
Genre: Drama


The adventures of Ragnar Lothbrok, the greatest hero of his age. The series tells the sagas of Ragnar's band of Viking brothers and his family, as he rises to become King of the Viking tribes. As well as being a fearless warrior, Ragnar embodies the Norse traditions of devotion to the gods. Legend has it that he was a direct descendant of Odin, the god of war and warriors.

ddf2430658c8473ea29f71232567b34d.mkv (510.9 MB)



General
Unique ID : 63523382810897737097668791280103266648 (0x2FCA2894453EDBF073787A193FF31958)
Complete name : ./ddf2430658c8473ea29f71232567b34d.mkv
Format : Matroska
Format version : Version 4 / Version 2
File size : 511 MiB
Duration : 42 min 9 s
Overall bit rate : 1 694 kb/s
Encoded date : UTC 2020-01-16 01:40:54
Writing application : mkvmerge v25.0.0 ('Prog Noir') 32-bit
Writing library : libebml v1.3.6 + libmatroska v1.4.9

Video
ID : 1
Format : AVC
Format/Info : Advanced Video Codec
Format profile : Main@L3.1
Format settings : CABAC / 2 Ref Frames
Format settings, CABAC : Yes
Format settings, RefFrames : 2 frames
Codec ID : V_MPEG4/ISO/AVC
Duration : 42 min 9 s
Bit rate mode : Constant
Bit rate : 1 600 kb/s
Width : 1 024 pixels
Height : 576 pixels
Display aspect ratio : 16:9
Frame rate mode : Constant
Frame rate : 25.000 FPS
Color space : YUV
Chroma subsampling : 4:2:0
Bit depth : 8 bits
Scan type : Progressive
Bits/(Pixel*Frame) : 0.109
Stream size : 482 MiB (94%)
Default : Yes
Forced : No

Audio
ID : 2
Format : AAC
Format/Info : Advanced Audio Codec
Format profile : HE-AAC / LC
Format settings : Explicit
Codec ID : A_AAC-2
Duration : 42 min 9 s
Bit rate : 96.0 kb/s
Channel(s) : 2 channels
Channel positions : Front: L R
Sampling rate : 44.1 kHz / 22.05 kHz
Frame rate : 21.533 FPS (1024 SPF)
Compression mode : Lossy
Stream size : 28.6 MiB (6%)
Title : English
Language : English
Default : Yes
Forced : No

Text
ID : 3
Format : UTF-8
Codec ID : S_TEXT/UTF8
Codec ID/Info : UTF-8 Plain Text
Duration : 41 min 45 s
Bit rate : 36 b/s
Count of elements : 425
Stream size : 11.2 KiB (0%)
Title : English
Language : English
Default : No
Forced : No





Vikings S06E07


Vikings S06E07


Vikings S06E07


Vikings S06E07


Vikings S06E07

All episodes