Featured TV Shows


Vikings S06E10

Posted By: Tavaz
1080p (FullHD) / WEBRip IMDb
Vikings S06E10

Vikings S06E10
WEBRip | MKV | 1920x1080 | English | H264 @ 4499 kbps | AAC @ 96 kbps | 46 min 30 s | 1.48 GiB
Subtitles: English
Genre: Drama


The adventures of Ragnar Lothbrok, the greatest hero of his age. The series tells the sagas of Ragnar's band of Viking brothers and his family, as he rises to become King of the Viking tribes. As well as being a fearless warrior, Ragnar embodies the Norse traditions of devotion to the gods. Legend has it that he was a direct descendant of Odin, the god of war and warriors.

4ec1b1beb63548a6b9b552c09ccc215d.mkv (1.5 GB)



General
Unique ID : 113922421094001143893116717078286517807 (0x55B4A903AABBD3CFAB904960CAB1462F)
Complete name : ./4ec1b1beb63548a6b9b552c09ccc215d.mkv
Format : Matroska
Format version : Version 4 / Version 2
File size : 1.48 GiB
Duration : 46 min 30 s
Overall bit rate : 4 568 kb/s
Encoded date : UTC 2020-02-06 06:10:09
Writing application : mkvmerge v25.0.0 ('Prog Noir') 32-bit
Writing library : libebml v1.3.6 + libmatroska v1.4.9

Video
ID : 1
Format : AVC
Format/Info : Advanced Video Codec
Format profile : High@L4.1
Format settings : CABAC / 2 Ref Frames
Format settings, CABAC : Yes
Format settings, RefFrames : 2 frames
Codec ID : V_MPEG4/ISO/AVC
Duration : 46 min 30 s
Bit rate mode : Constant
Bit rate : 4 500 kb/s
Width : 1 920 pixels
Height : 1 080 pixels
Display aspect ratio : 16:9
Frame rate mode : Constant
Frame rate : 25.000 FPS
Color space : YUV
Chroma subsampling : 4:2:0
Bit depth : 8 bits
Scan type : Progressive
Bits/(Pixel*Frame) : 0.087
Stream size : 1.45 GiB (98%)
Default : Yes
Forced : No

Audio
ID : 2
Format : AAC
Format/Info : Advanced Audio Codec
Format profile : HE-AAC / LC
Format settings : Explicit
Codec ID : A_AAC-2
Duration : 46 min 30 s
Bit rate : 96.0 kb/s
Channel(s) : 2 channels
Channel positions : Front: L R
Sampling rate : 44.1 kHz / 22.05 kHz
Frame rate : 21.533 FPS (1024 SPF)
Compression mode : Lossy
Stream size : 31.5 MiB (2%)
Title : English
Language : English
Default : Yes
Forced : No

Text
ID : 3
Format : UTF-8
Codec ID : S_TEXT/UTF8
Codec ID/Info : UTF-8 Plain Text
Duration : 45 min 30 s
Bit rate : 37 b/s
Count of elements : 500
Stream size : 12.4 KiB (0%)
Title : English
Language : English
Default : No
Forced : No





Vikings S06E10


Vikings S06E10


Vikings S06E10


Vikings S06E10


Vikings S06E10

All episodes