Index
# A B C D E F G H I J K L M N O P Q R S T U V W X Y Z
Tags
Language
Tags
July 2024
Su Mo Tu We Th Fr Sa
30 1 2 3 4 5 6
7 8 9 10 11 12 13
14 15 16 17 18 19 20
21 22 23 24 25 26 27
28 29 30 31 1 2 3

Featured TV Shows


Vixen S02E01

Posted By: Tavaz
720p (HD) / WEBRip IMDb
Vixen S02E01

Vixen S02E01
WEBRip | MKV | 1280x720 | English | H264 @ 1950 kbps | AAC @ 100 kbps | 6 min 27 s | 91.3 MiB
Subtitles: English
Genre: Animation


Originally from Africa, Mari McGabe's parents were killed by local greed, corruption and wanton violence.But the orphaned Marl refuses to succumb to the terrors surrounding her.

Inheriting her family's Tantu Totem, Mari can access the powers of animals - anything from the super-strength of a gorilla to the speed of a cheetah. As Vixen she fights valiantly to protect the world from threats like those that claimed her family.

15dfd05b811540a98c0146d642eb0fbf.mkv (91.3 MB)



General
Unique ID : 242877857412025512426728330799250293631 (0xB6B892E74C8E2D216979387EEDB2437F)
Complete name : ./15dfd05b811540a98c0146d642eb0fbf.mkv
Format : Matroska
Format version : Version 4 / Version 2
File size : 91.3 MiB
Duration : 6 min 27 s
Overall bit rate : 1 976 kb/s
Movie name : Vixen.S02E01.Episode.1.720p.CWSeed.WEBRip.x264.AAC-BMF
Encoded date : UTC 2016-11-02 12:57:02
Writing application : mkvmerge v9.5.0 ('Quiet Fire') 64bit
Writing library : libebml v1.3.4 + libmatroska v1.4.5

Video
ID : 1
Format : AVC
Format/Info : Advanced Video Codec
Format profile : Baseline@L3.1
Format settings : 3 Ref Frames
Format settings, CABAC : No
Format settings, RefFrames : 3 frames
Codec ID : V_MPEG4/ISO/AVC
Duration : 6 min 27 s
Bit rate : 1 950 kb/s
Width : 1 280 pixels
Height : 720 pixels
Display aspect ratio : 16:9
Frame rate mode : Constant
Frame rate : 23.976 FPS
Color space : YUV
Chroma subsampling : 4:2:0
Bit depth : 8 bits
Scan type : Progressive
Bits/(Pixel*Frame) : 0.088
Stream size : 86.5 MiB (95%)
Writing library : x264 core 118
Encoding settings : cabac=0 / ref=3 / deblock=1:0:0 / analyse=0x1:0x111 / me=hex / subme=7 / psy=1 / psy_rd=1.00:0.00 / mixed_ref=1 / me_range=16 / chroma_me=1 / trellis=1 / 8x8dct=0 / cqm=0 / deadzone=21,11 / fast_pskip=1 / chroma_qp_offset=-2 / threads=1 / sliced_threads=0 / nr=0 / decimate=1 / interlaced=0 / bluray_compat=0 / constrained_intra=0 / bframes=0 / weightp=0 / keyint=90 / keyint_min=9 / scenecut=40 / intra_refresh=0 / rc_lookahead=0 / rc=2pass / mbtree=1 / bitrate=1950 / ratetol=1.0 / qcomp=0.60 / qpmin=0 / qpmax=69 / qpstep=4 / cplxblur=20.0 / qblur=0.5 / vbv_maxrate=1950 / vbv_bufsize=1950 / nal_hrd=none / ip_ratio=1.40 / aq=1:1.00
Default : Yes
Forced : No

Audio
ID : 2
Format : AAC
Format/Info : Advanced Audio Codec
Format profile : LC
Codec ID : A_AAC-2
Duration : 6 min 27 s
Bit rate : 100 kb/s
Channel(s) : 2 channels
Channel positions : Front: L R
Sampling rate : 48.0 kHz
Frame rate : 46.875 FPS (1024 SPF)
Compression mode : Lossy
Stream size : 4.64 MiB (5%)
Default : Yes
Forced : No

Text
ID : 3
Format : UTF-8
Codec ID : S_TEXT/UTF8
Codec ID/Info : UTF-8 Plain Text
Duration : 5 min 39 s
Bit rate : 83 b/s
Count of elements : 103
Stream size : 3.46 KiB (0%)
Language : English
Default : No
Forced : No





Vixen S02E01


Vixen S02E01


Vixen S02E01


Vixen S02E01


Vixen S02E01

All episodes