Featured TV Shows


Vorstadtweiber S03E09

Posted By: Tavaz
Vorstadtweiber S03E09

Vorstadtweiber S03E09
MKV | 1280x720 | H264 @ 3700 kbps | AC-3 @ 192 kbps | 47 min 45 s | 1.30 GiB
Genre: Comedy



Vorstadtweiber.S03E09.ORFeinsHD.German.720p.HDTV.x264.mkv (1.3 GB)



General
Unique ID : 283982948096458242899998587866421493386 (0xD5A520580B12FE6F241B5ECB007D7E8A)
Complete name : ./Vorstadtweiber.S03E09.ORFeinsHD.German.720p.HDTV.x264.mkv
Format : Matroska
Format version : Version 4 / Version 2
File size : 1.30 GiB
Duration : 47 min 45 s
Overall bit rate : 3 896 kb/s
Encoded date : UTC 2018-02-26 21:15:22 / UTC 2018-02-26 21:15:22
Writing application : Lavf57.3.100
Writing library : Lavf57.3.100

Video
ID : 1
Format : AVC
Format/Info : Advanced Video Codec
Format profile : Main@L4.1
Format settings : CABAC / 5 Ref Frames
Format settings, CABAC : Yes
Format settings, RefFrames : 5 frames
Codec ID : V_MPEG4/ISO/AVC
Duration : 47 min 44 s
Bit rate : 3 700 kb/s
Width : 1 280 pixels
Height : 720 pixels
Display aspect ratio : 16:9
Frame rate mode : Constant
Frame rate : 50.000 FPS
Color space : YUV
Chroma subsampling : 4:2:0
Bit depth : 8 bits
Scan type : Progressive
Bits/(Pixel*Frame) : 0.080
Stream size : 1.21 GiB (93%)
Writing library : x264 core 148 r2538
Encoding settings : cabac=1 / ref=5 / deblock=1:0:0 / analyse=0x1:0x111 / me=umh / subme=8 / psy=1 / psy_rd=1.00:0.00 / mixed_ref=0 / me_range=16 / chroma_me=1 / trellis=1 / 8x8dct=0 / cqm=0 / deadzone=21,11 / fast_pskip=1 / chroma_qp_offset=-2 / threads=6 / lookahead_threads=1 / sliced_threads=0 / nr=0 / decimate=1 / interlaced=0 / bluray_compat=0 / constrained_intra=0 / bframes=3 / b_pyramid=0 / b_adapt=2 / b_bias=0 / direct=3 / weightb=1 / open_gop=0 / weightp=2 / keyint=500 / keyint_min=50 / scenecut=40 / intra_refresh=0 / rc_lookahead=50 / rc=cbr / mbtree=1 / bitrate=3700 / ratetol=1.0 / qcomp=0.60 / qpmin=10 / qpmax=69 / qpstep=4 / vbv_maxrate=3700 / vbv_bufsize=24000 / nal_hrd=none / filler=0 / ip_ratio=1.40 / aq=3:1.00
Default : Yes
Forced : No

Audio
ID : 2
Format : AC-3
Format/Info : Audio Coding 3
Format settings, Endianness : Big
Codec ID : A_AC3
Duration : 47 min 45 s
Bit rate mode : Constant
Bit rate : 192 kb/s
Channel(s) : 2 channels
Channel positions : Front: L R
Sampling rate : 48.0 kHz
Frame rate : 31.250 FPS (1536 SPF)
Bit depth : 16 bits
Compression mode : Lossy
Delay relative to video : -665 ms
Stream size : 65.6 MiB (5%)
Writing library : Lavc57.4.100 ac3_fixed
Service kind : Complete Main
Default : Yes
Forced : No





Vorstadtweiber S03E09


Vorstadtweiber S03E09


Vorstadtweiber S03E09


Vorstadtweiber S03E09


Vorstadtweiber S03E09

All episodes