Featured TV Shows


WandaVision S01E01

Posted By: MegoNecia
2160p (4k UHD) / WEBRip IMDb
WandaVision S01E01

WandaVision S01E01
WEBRip | MKV | 3840x2160 | English | H265 @ 15161 kbps | E-AC-3 @ 768 kbps | 26 min 33 s | 2.95 GiB
Subtitles: Français, Deutsch, Suomi, Español, Svenska, Italiano, Nederlands, Dansk, English, Português
Genre: Drama, Mystery, Comedy


Wanda Maximoff and Vision—two super-powered beings living idealized suburban lives—begin to suspect that everything is not as it seems.

817482aace09f92b45002f6378ca84ec.mkv (3.0 GB)



General
Unique ID : 284182187281679249095415478485041950580 (0xD5CB7F981B7EAC0363752BB52F7A2F74)
Complete name : ./817482aace09f92b45002f6378ca84ec.mkv
Format : Matroska
Format version : Version 4 / Version 2
File size : 2.95 GiB
Duration : 26 min 33 s
Overall bit rate : 15.9 Mb/s
Writing application : mkvmerge v51.0.0 ('I Wish') 64-bit
Writing library : libebml v1.4.0 + libmatroska v1.6.2

Video
ID : 1
Format : HEVC
Format/Info : High Efficiency Video Coding
Format profile : Main 10@L5@High
Codec ID : V_MPEGH/ISO/HEVC
Duration : 26 min 33 s
Bit rate : 15.2 Mb/s
Width : 3 840 pixels
Height : 2 160 pixels
Display aspect ratio : 16:9
Frame rate mode : Constant
Frame rate : 23.976 (24000/1001) FPS
Color space : YUV
Chroma subsampling : 4:2:0
Bit depth : 10 bits
Bits/(Pixel*Frame) : 0.076
Stream size : 2.81 GiB (95%)
Language : English
Default : Yes
Forced : No
Color range : Limited
Color primaries : BT.2020
Transfer characteristics : PQ
Matrix coefficients : BT.2020 non-constant
Mastering display color primaries : R: x=0.708000 y=0.292000, G: x=0.170000 y=0.797000, B: x=0.131000 y=0.046000, White point: x=0.312700 y=0.329000
Mastering display luminance : min: 0.0000 cd/m2, max: 1000.0000 cd/m2

Audio
ID : 2
Format : E-AC-3
Format/Info : Enhanced Audio Coding 3
Format profile : E-AC-3+Atmos / E-AC-3
Format settings, Endianness : Big
Codec ID : A_EAC3
Duration : 26 min 33 s
Bit rate mode : Constant
Bit rate : 768 kb/s
Channel(s) : 15 objects / 6 channels
Channel positions : 15 objects / Front: L C R, Side: L R, LFE
Sampling rate : 48.0 kHz
Frame rate : 187.500 FPS (256 SPF)
Compression mode : Lossy
Stream size : 146 MiB (5%)
Language : English
Service kind : Complete Main
Default : Yes
Forced : No

Text #1
ID : 3
Format : UTF-8
Codec ID : S_TEXT/UTF8
Codec ID/Info : UTF-8 Plain Text
Duration : 21 min 0 s
Bit rate : 94 b/s
Count of elements : 448
Stream size : 14.5 KiB (0%)
Title : English (SDH)
Language : English
Default : No
Forced : No

Text #2
ID : 4
Format : UTF-8
Codec ID : S_TEXT/UTF8
Codec ID/Info : UTF-8 Plain Text
Duration : 25 min 47 s
Bit rate : 58 b/s
Count of elements : 270
Stream size : 11.1 KiB (0%)
Title : Dansk
Language : Danish
Default : No
Forced : No

Text #3
ID : 5
Format : UTF-8
Codec ID : S_TEXT/UTF8
Codec ID/Info : UTF-8 Plain Text
Duration : 25 min 44 s
Bit rate : 61 b/s
Count of elements : 367
Stream size : 11.5 KiB (0%)
Title : Deutsch
Language : German
Default : No
Forced : No

Text #4
ID : 6
Format : UTF-8
Codec ID : S_TEXT/UTF8
Codec ID/Info : UTF-8 Plain Text
Duration : 25 min 44 s
Bit rate : 64 b/s
Count of elements : 405
Stream size : 12.2 KiB (0%)
Title : Español (Latinoamericano)
Language : Spanish
Default : No
Forced : No

Text #5
ID : 7
Format : UTF-8
Codec ID : S_TEXT/UTF8
Codec ID/Info : UTF-8 Plain Text
Duration : 25 min 44 s
Bit rate : 67 b/s
Count of elements : 410
Stream size : 12.8 KiB (0%)
Title : Español
Language : Spanish
Default : No
Forced : No

Text #6
ID : 8
Format : UTF-8
Codec ID : S_TEXT/UTF8
Codec ID/Info : UTF-8 Plain Text
Duration : 25 min 45 s
Bit rate : 57 b/s
Count of elements : 408
Stream size : 10.9 KiB (0%)
Title : Suomi
Language : Finnish
Default : No
Forced : No

Text #7
ID : 9
Format : UTF-8
Codec ID : S_TEXT/UTF8
Codec ID/Info : UTF-8 Plain Text
Duration : 25 min 44 s
Bit rate : 57 b/s
Count of elements : 377
Stream size : 10.8 KiB (0%)
Title : Français
Language : French
Default : No
Forced : No

Text #8
ID : 10
Format : UTF-8
Codec ID : S_TEXT/UTF8
Codec ID/Info : UTF-8 Plain Text
Duration : 21 min 42 s
Bit rate : 67 b/s
Count of elements : 376
Stream size : 10.7 KiB (0%)
Title : Français (Canadien)
Language : French
Default : No
Forced : No

Text #9
ID : 11
Format : UTF-8
Codec ID : S_TEXT/UTF8
Codec ID/Info : UTF-8 Plain Text
Duration : 25 min 47 s
Bit rate : 61 b/s
Count of elements : 413
Stream size : 11.5 KiB (0%)
Title : Italiano
Language : Italian
Default : No
Forced : No

Text #10
ID : 12
Format : UTF-8
Codec ID : S_TEXT/UTF8
Codec ID/Info : UTF-8 Plain Text
Duration : 25 min 44 s
Bit rate : 59 b/s
Count of elements : 340
Stream size : 11.2 KiB (0%)
Title : Nederlands
Language : Dutch
Default : No
Forced : No

Text #11
ID : 13
Format : UTF-8
Codec ID : S_TEXT/UTF8
Codec ID/Info : UTF-8 Plain Text
Duration : 25 min 45 s
Bit rate : 57 b/s
Count of elements : 408
Stream size : 10.8 KiB (0%)
Title : Norsk
Language : Norwegian
Default : No
Forced : No

Text #12
ID : 14
Format : UTF-8
Codec ID : S_TEXT/UTF8
Codec ID/Info : UTF-8 Plain Text
Duration : 25 min 44 s
Bit rate : 69 b/s
Count of elements : 413
Stream size : 13.0 KiB (0%)
Title : Português (Brasil)
Language : Portuguese
Default : No
Forced : No

Text #13
ID : 15
Format : UTF-8
Codec ID : S_TEXT/UTF8
Codec ID/Info : UTF-8 Plain Text
Duration : 25 min 44 s
Bit rate : 64 b/s
Count of elements : 380
Stream size : 12.2 KiB (0%)
Title : Português
Language : Portuguese
Default : No
Forced : No

Text #14
ID : 16
Format : UTF-8
Codec ID : S_TEXT/UTF8
Codec ID/Info : UTF-8 Plain Text
Duration : 25 min 44 s
Bit rate : 62 b/s
Count of elements : 329
Stream size : 11.8 KiB (0%)
Title : Svenska
Language : Swedish
Default : No
Forced : No





WandaVision S01E01


WandaVision S01E01


WandaVision S01E01


WandaVision S01E01


WandaVision S01E01

All episodes