Featured TV Shows


WandaVision S01E02

Posted By: MegoNecia
720p (HD) / WEBRip IMDb
WandaVision S01E02

WandaVision S01E02
WEBRip | MKV | 1280x720 | English | H264 @ 3221 kbps | E-AC-3 @ 768 kbps | 33 min 41 s | 962 MiB
Subtitles: Français, Deutsch, Suomi, Español, Svenska, Italiano, Nederlands, Dansk, English, Português
Genre: Drama, Mystery, Comedy


Wanda Maximoff and Vision—two super-powered beings living idealized suburban lives—begin to suspect that everything is not as it seems.

ec6cab77120b417dbb2fdb745e34a7cf.mkv (962.1 MB)



General
Unique ID : 237558285648649809665762932726642659863 (0xB2B80FC4271945DC3B54EA3DD2725217)
Complete name : ./ec6cab77120b417dbb2fdb745e34a7cf.mkv
Format : Matroska
Format version : Version 4 / Version 2
File size : 962 MiB
Duration : 33 min 41 s
Overall bit rate mode : Variable
Overall bit rate : 3 993 kb/s
Writing application : mkvmerge v51.0.0 ('I Wish') 64-bit
Writing library : libebml v1.4.0 + libmatroska v1.6.2

Video
ID : 1
Format : AVC
Format/Info : Advanced Video Codec
Format profile : High@L3.1
Format settings : CABAC / 4 Ref Frames
Format settings, CABAC : Yes
Format settings, RefFrames : 4 frames
Codec ID : V_MPEG4/ISO/AVC
Duration : 33 min 41 s
Bit rate mode : Variable
Bit rate : 3 222 kb/s
Maximum bit rate : 6 375 kb/s
Width : 1 280 pixels
Height : 720 pixels
Display aspect ratio : 16:9
Frame rate mode : Constant
Frame rate : 23.976 (24000/1001) FPS
Color space : YUV
Chroma subsampling : 4:2:0
Bit depth : 8 bits
Scan type : Progressive
Bits/(Pixel*Frame) : 0.146
Stream size : 776 MiB (81%)
Language : English
Default : Yes
Forced : No
Color range : Limited
Color primaries : BT.709
Transfer characteristics : BT.709
Matrix coefficients : BT.709

Audio
ID : 2
Format : E-AC-3
Format/Info : Enhanced Audio Coding 3
Format profile : E-AC-3+Atmos / E-AC-3
Format settings, Endianness : Big
Codec ID : A_EAC3
Duration : 33 min 41 s
Bit rate mode : Constant
Bit rate : 768 kb/s
Channel(s) : 15 objects / 6 channels
Channel positions : 15 objects / Front: L C R, Side: L R, LFE
Sampling rate : 48.0 kHz
Frame rate : 187.500 FPS (256 SPF)
Compression mode : Lossy
Stream size : 185 MiB (19%)
Language : English
Service kind : Complete Main
Default : Yes
Forced : No

Text #1
ID : 3
Format : UTF-8
Codec ID : S_TEXT/UTF8
Codec ID/Info : UTF-8 Plain Text
Duration : 29 min 24 s
Bit rate : 71 b/s
Count of elements : 479
Stream size : 15.3 KiB (0%)
Title : English (SDH)
Language : English
Default : No
Forced : No

Text #2
ID : 4
Format : UTF-8
Codec ID : S_TEXT/UTF8
Codec ID/Info : UTF-8 Plain Text
Duration : 33 min 39 s
Bit rate : 46 b/s
Count of elements : 300
Stream size : 11.3 KiB (0%)
Title : Dansk
Language : Danish
Default : No
Forced : No

Text #3
ID : 5
Format : UTF-8
Codec ID : S_TEXT/UTF8
Codec ID/Info : UTF-8 Plain Text
Duration : 33 min 39 s
Bit rate : 48 b/s
Count of elements : 392
Stream size : 12.0 KiB (0%)
Title : Deutsch
Language : German
Default : No
Forced : No

Text #4
ID : 6
Format : UTF-8
Codec ID : S_TEXT/UTF8
Codec ID/Info : UTF-8 Plain Text
Duration : 33 min 39 s
Bit rate : 54 b/s
Count of elements : 427
Stream size : 13.4 KiB (0%)
Title : Español
Language : Spanish
Default : No
Forced : No

Text #5
ID : 7
Format : UTF-8
Codec ID : S_TEXT/UTF8
Codec ID/Info : UTF-8 Plain Text
Duration : 33 min 39 s
Bit rate : 53 b/s
Count of elements : 423
Stream size : 13.1 KiB (0%)
Title : Español (Latinoamericano)
Language : Spanish
Default : No
Forced : No

Text #6
ID : 8
Format : UTF-8
Codec ID : S_TEXT/UTF8
Codec ID/Info : UTF-8 Plain Text
Duration : 33 min 39 s
Bit rate : 44 b/s
Count of elements : 417
Stream size : 11.0 KiB (0%)
Title : Suomi
Language : Finnish
Default : No
Forced : No

Text #7
ID : 9
Format : UTF-8
Codec ID : S_TEXT/UTF8
Codec ID/Info : UTF-8 Plain Text
Duration : 29 min 37 s
Bit rate : 49 b/s
Count of elements : 368
Stream size : 10.8 KiB (0%)
Title : Français (Canadien)
Language : French
Default : No
Forced : No

Text #8
ID : 10
Format : UTF-8
Codec ID : S_TEXT/UTF8
Codec ID/Info : UTF-8 Plain Text
Duration : 33 min 39 s
Bit rate : 43 b/s
Count of elements : 368
Stream size : 10.8 KiB (0%)
Title : Français
Language : French
Default : No
Forced : No

Text #9
ID : 11
Format : UTF-8
Codec ID : S_TEXT/UTF8
Codec ID/Info : UTF-8 Plain Text
Duration : 33 min 39 s
Bit rate : 49 b/s
Count of elements : 417
Stream size : 12.1 KiB (0%)
Title : Italiano
Language : Italian
Default : No
Forced : No

Text #10
ID : 12
Format : UTF-8
Codec ID : S_TEXT/UTF8
Codec ID/Info : UTF-8 Plain Text
Duration : 33 min 39 s
Bit rate : 49 b/s
Count of elements : 358
Stream size : 12.1 KiB (0%)
Title : Nederlands
Language : Dutch
Default : No
Forced : No

Text #11
ID : 13
Format : UTF-8
Codec ID : S_TEXT/UTF8
Codec ID/Info : UTF-8 Plain Text
Duration : 33 min 39 s
Bit rate : 44 b/s
Count of elements : 424
Stream size : 11.1 KiB (0%)
Title : Norsk
Language : Norwegian
Default : No
Forced : No

Text #12
ID : 14
Format : UTF-8
Codec ID : S_TEXT/UTF8
Codec ID/Info : UTF-8 Plain Text
Duration : 33 min 39 s
Bit rate : 53 b/s
Count of elements : 411
Stream size : 13.1 KiB (0%)
Title : Português
Language : Portuguese
Default : No
Forced : No

Text #13
ID : 15
Format : UTF-8
Codec ID : S_TEXT/UTF8
Codec ID/Info : UTF-8 Plain Text
Duration : 33 min 39 s
Bit rate : 54 b/s
Count of elements : 423
Stream size : 13.5 KiB (0%)
Title : Português (Brasil)
Language : Portuguese
Default : No
Forced : No

Text #14
ID : 16
Format : UTF-8
Codec ID : S_TEXT/UTF8
Codec ID/Info : UTF-8 Plain Text
Duration : 33 min 39 s
Bit rate : 50 b/s
Count of elements : 323
Stream size : 12.4 KiB (0%)
Title : Svenska
Language : Swedish
Default : No
Forced : No





WandaVision S01E02


WandaVision S01E02


WandaVision S01E02


WandaVision S01E02


WandaVision S01E02

All episodes