Featured TV Shows


WandaVision S01E03

Posted By: MegoNecia
1080p (FullHD) / WEB-DL IMDb
WandaVision S01E03

WandaVision S01E03
WEB-DL | MKV | 1920x1080 | English | H264 @ 7025 kbps | E-AC-3 @ 768 kbps | 29 min 57 s | 1.63 GiB
Subtitles: Français, Deutsch, Suomi, Español, Svenska, Italiano, Nederlands, Dansk, English, Português
Genre: Drama, Mystery, Comedy


Wanda Maximoff and Vision—two super-powered beings living idealized suburban lives—begin to suspect that everything is not as it seems.

a889a7d8cc2a1044ab2a098a9ec91a74.mkv (1.6 GB)



General
Unique ID : 257562809596026309938577304837808046545 (0xC1C4CAF21127E0A6F122F000BE31C1D1)
Complete name : ./a889a7d8cc2a1044ab2a098a9ec91a74.mkv
Format : Matroska
Format version : Version 4 / Version 2
File size : 1.63 GiB
Duration : 29 min 57 s
Overall bit rate mode : Variable
Overall bit rate : 7 798 kb/s
Encoded date : UTC 2021-01-22 17:02:20
Writing application : mkvmerge v50.0.0 ('Awakenings') 64-bit
Writing library : libebml v1.4.0 + libmatroska v1.6.2

Video
ID : 1
Format : AVC
Format/Info : Advanced Video Codec
Format profile : High@L4
Format settings : CABAC / 4 Ref Frames
Format settings, CABAC : Yes
Format settings, RefFrames : 4 frames
Codec ID : V_MPEG4/ISO/AVC
Duration : 29 min 57 s
Bit rate mode : Variable
Bit rate : 7 026 kb/s
Maximum bit rate : 12.7 Mb/s
Width : 1 920 pixels
Height : 1 080 pixels
Display aspect ratio : 16:9
Frame rate mode : Constant
Frame rate : 23.976 (24000/1001) FPS
Color space : YUV
Chroma subsampling : 4:2:0
Bit depth : 8 bits
Scan type : Progressive
Bits/(Pixel*Frame) : 0.141
Stream size : 1.47 GiB (90%)
Default : Yes
Forced : No
Color range : Limited
Color primaries : BT.709
Transfer characteristics : BT.709
Matrix coefficients : BT.709

Audio
ID : 2
Format : E-AC-3
Format/Info : Enhanced Audio Coding 3
Format profile : E-AC-3+Atmos / E-AC-3
Format settings, Endianness : Big
Codec ID : A_EAC3
Duration : 29 min 57 s
Bit rate mode : Constant
Bit rate : 768 kb/s
Channel(s) : 15 objects / 6 channels
Channel positions : 15 objects / Front: L C R, Side: L R, LFE
Sampling rate : 48.0 kHz
Frame rate : 187.500 FPS (256 SPF)
Compression mode : Lossy
Stream size : 165 MiB (10%)
Title : English
Language : English
Service kind : Complete Main
Default : No
Forced : No

Text #1
ID : 3
Format : UTF-8
Codec ID : S_TEXT/UTF8
Codec ID/Info : UTF-8 Plain Text
Duration : 29 min 55 s
Bit rate : 53 b/s
Count of elements : 430
Stream size : 11.7 KiB (0%)
Title : Brazilian Portuguese
Language : Portuguese
Default : No
Forced : No

Text #2
ID : 4
Format : UTF-8
Codec ID : S_TEXT/UTF8
Codec ID/Info : UTF-8 Plain Text
Duration : 25 min 53 s
Bit rate : 50 b/s
Count of elements : 384
Stream size : 9.50 KiB (0%)
Title : French Canadian
Language : French
Default : No
Forced : No

Text #3
ID : 5
Format : UTF-8
Codec ID : S_TEXT/UTF8
Codec ID/Info : UTF-8 Plain Text
Duration : 29 min 45 s
Bit rate : 46 b/s
Count of elements : 291
Stream size : 10.1 KiB (0%)
Title : Danish
Language : Danish
Default : No
Forced : No

Text #4
ID : 6
Format : UTF-8
Codec ID : S_TEXT/UTF8
Codec ID/Info : UTF-8 Plain Text
Duration : 29 min 55 s
Bit rate : 48 b/s
Count of elements : 394
Stream size : 10.6 KiB (0%)
Title : German
Language : German
Default : No
Forced : No

Text #5
ID : 7
Format : UTF-8
Codec ID : S_TEXT/UTF8
Codec ID/Info : UTF-8 Plain Text
Duration : 25 min 23 s
Bit rate : 75 b/s
Count of elements : 487
Stream size : 14.0 KiB (0%)
Title : English [SDH]
Language : English
Default : No
Forced : No

Text #6
ID : 8
Format : UTF-8
Codec ID : S_TEXT/UTF8
Codec ID/Info : UTF-8 Plain Text
Duration : 24 min 51 s
Bit rate : 66 b/s
Count of elements : 430
Stream size : 12.1 KiB (0%)
Title : English
Language : English
Default : No
Forced : No

Text #7
ID : 9
Format : UTF-8
Codec ID : S_TEXT/UTF8
Codec ID/Info : UTF-8 Plain Text
Duration : 29 min 55 s
Bit rate : 52 b/s
Count of elements : 426
Stream size : 11.5 KiB (0%)
Title : European Spanish
Language : Spanish
Default : No
Forced : No

Text #8
ID : 10
Format : UTF-8
Codec ID : S_TEXT/UTF8
Codec ID/Info : UTF-8 Plain Text
Duration : 29 min 55 s
Bit rate : 44 b/s
Count of elements : 417
Stream size : 9.85 KiB (0%)
Title : Finnish
Language : Finnish
Default : No
Forced : No

Text #9
ID : 11
Format : UTF-8
Codec ID : S_TEXT/UTF8
Codec ID/Info : UTF-8 Plain Text
Duration : 29 min 55 s
Bit rate : 43 b/s
Count of elements : 382
Stream size : 9.51 KiB (0%)
Title : French
Language : French
Default : No
Forced : No

Text #10
ID : 12
Format : UTF-8
Codec ID : S_TEXT/UTF8
Codec ID/Info : UTF-8 Plain Text
Duration : 29 min 55 s
Bit rate : 48 b/s
Count of elements : 423
Stream size : 10.7 KiB (0%)
Title : Italian
Language : Italian
Default : No
Forced : No

Text #11
ID : 13
Format : UTF-8
Codec ID : S_TEXT/UTF8
Codec ID/Info : UTF-8 Plain Text
Duration : 29 min 55 s
Bit rate : 49 b/s
Count of elements : 351
Stream size : 10.8 KiB (0%)
Title : Dutch
Language : Dutch
Default : No
Forced : No

Text #12
ID : 14
Format : UTF-8
Codec ID : S_TEXT/UTF8
Codec ID/Info : UTF-8 Plain Text
Duration : 29 min 55 s
Bit rate : 44 b/s
Count of elements : 424
Stream size : 9.85 KiB (0%)
Title : Norwegian
Language : Norwegian
Default : No
Forced : No

Text #13
ID : 15
Format : UTF-8
Codec ID : S_TEXT/UTF8
Codec ID/Info : UTF-8 Plain Text
Duration : 29 min 55 s
Bit rate : 53 b/s
Count of elements : 406
Stream size : 11.7 KiB (0%)
Title : Portuguese
Language : Portuguese
Default : No
Forced : No

Text #14
ID : 16
Format : UTF-8
Codec ID : S_TEXT/UTF8
Codec ID/Info : UTF-8 Plain Text
Duration : 29 min 55 s
Bit rate : 51 b/s
Count of elements : 424
Stream size : 11.2 KiB (0%)
Title : Spanish
Language : Spanish
Default : No
Forced : No

Text #15
ID : 17
Format : UTF-8
Codec ID : S_TEXT/UTF8
Codec ID/Info : UTF-8 Plain Text
Duration : 29 min 55 s
Bit rate : 48 b/s
Count of elements : 328
Stream size : 10.7 KiB (0%)
Title : Swedish
Language : Swedish
Default : No
Forced : No





WandaVision S01E03


WandaVision S01E03


WandaVision S01E03


WandaVision S01E03


WandaVision S01E03

All episodes