Featured TV Shows


WandaVision S01E03

Posted By: MegoNecia
2160p (4k UHD) / WEB-DL IMDb
WandaVision S01E03

WandaVision S01E03
WEB-DL | MKV | 3840x2160 | English | H265 @ 15240 kbps | E-AC-3 @ 768 kbps | 29 min 57 s | 3.35 GiB
Subtitles: Français, Deutsch, Suomi, Español, Svenska, Italiano, Nederlands, Dansk, English, Português
Genre: Drama, Mystery, Comedy


Wanda Maximoff and Vision—two super-powered beings living idealized suburban lives—begin to suspect that everything is not as it seems.

a53cc039852df6ffa0fe4829e2545d48.mkv (3.4 GB)



General
Unique ID : 189170757650777968690283008711285124230 (0x8E50F671F2A2DDDE6342F85D5A05AC86)
Complete name : ./a53cc039852df6ffa0fe4829e2545d48.mkv
Format : Matroska
Format version : Version 4 / Version 2
File size : 3.35 GiB
Duration : 29 min 57 s
Overall bit rate : 16.0 Mb/s
Encoded date : UTC 2021-01-22 17:03:36
Writing application : mkvmerge v50.0.0 ('Awakenings') 64-bit
Writing library : libebml v1.4.0 + libmatroska v1.6.2

Video
ID : 1
Format : HEVC
Format/Info : High Efficiency Video Coding
Format profile : Main 10@L5@High
Codec ID : V_MPEGH/ISO/HEVC
Duration : 29 min 57 s
Bit rate : 15.2 Mb/s
Width : 3 840 pixels
Height : 2 160 pixels
Display aspect ratio : 16:9
Frame rate mode : Constant
Frame rate : 23.976 (24000/1001) FPS
Color space : YUV
Chroma subsampling : 4:2:0
Bit depth : 10 bits
Bits/(Pixel*Frame) : 0.077
Stream size : 3.19 GiB (95%)
Default : Yes
Forced : No
Color range : Limited
Color primaries : BT.2020
Transfer characteristics : PQ
Matrix coefficients : BT.2020 non-constant
Mastering display color primaries : R: x=0.708000 y=0.292000, G: x=0.170000 y=0.797000, B: x=0.131000 y=0.046000, White point: x=0.312700 y=0.329000
Mastering display luminance : min: 0.0000 cd/m2, max: 1000.0000 cd/m2

Audio
ID : 2
Format : E-AC-3
Format/Info : Enhanced Audio Coding 3
Format profile : E-AC-3+Atmos / E-AC-3
Format settings, Endianness : Big
Codec ID : A_EAC3
Duration : 29 min 57 s
Bit rate mode : Constant
Bit rate : 768 kb/s
Channel(s) : 15 objects / 6 channels
Channel positions : 15 objects / Front: L C R, Side: L R, LFE
Sampling rate : 48.0 kHz
Frame rate : 187.500 FPS (256 SPF)
Compression mode : Lossy
Stream size : 165 MiB (5%)
Title : English
Language : English
Service kind : Complete Main
Default : No
Forced : No

Text #1
ID : 3
Format : UTF-8
Codec ID : S_TEXT/UTF8
Codec ID/Info : UTF-8 Plain Text
Duration : 29 min 55 s
Bit rate : 53 b/s
Count of elements : 430
Stream size : 11.7 KiB (0%)
Title : Brazilian Portuguese
Language : Portuguese
Default : No
Forced : No

Text #2
ID : 4
Format : UTF-8
Codec ID : S_TEXT/UTF8
Codec ID/Info : UTF-8 Plain Text
Duration : 25 min 53 s
Bit rate : 50 b/s
Count of elements : 384
Stream size : 9.50 KiB (0%)
Title : French Canadian
Language : French
Default : No
Forced : No

Text #3
ID : 5
Format : UTF-8
Codec ID : S_TEXT/UTF8
Codec ID/Info : UTF-8 Plain Text
Duration : 29 min 45 s
Bit rate : 46 b/s
Count of elements : 291
Stream size : 10.1 KiB (0%)
Title : Danish
Language : Danish
Default : No
Forced : No

Text #4
ID : 6
Format : UTF-8
Codec ID : S_TEXT/UTF8
Codec ID/Info : UTF-8 Plain Text
Duration : 29 min 55 s
Bit rate : 48 b/s
Count of elements : 394
Stream size : 10.6 KiB (0%)
Title : German
Language : German
Default : No
Forced : No

Text #5
ID : 7
Format : UTF-8
Codec ID : S_TEXT/UTF8
Codec ID/Info : UTF-8 Plain Text
Duration : 25 min 23 s
Bit rate : 75 b/s
Count of elements : 487
Stream size : 14.0 KiB (0%)
Title : English [SDH]
Language : English
Default : No
Forced : No

Text #6
ID : 8
Format : UTF-8
Codec ID : S_TEXT/UTF8
Codec ID/Info : UTF-8 Plain Text
Duration : 24 min 51 s
Bit rate : 66 b/s
Count of elements : 430
Stream size : 12.1 KiB (0%)
Title : English
Language : English
Default : No
Forced : No

Text #7
ID : 9
Format : UTF-8
Codec ID : S_TEXT/UTF8
Codec ID/Info : UTF-8 Plain Text
Duration : 29 min 55 s
Bit rate : 52 b/s
Count of elements : 426
Stream size : 11.5 KiB (0%)
Title : European Spanish
Language : Spanish
Default : No
Forced : No

Text #8
ID : 10
Format : UTF-8
Codec ID : S_TEXT/UTF8
Codec ID/Info : UTF-8 Plain Text
Duration : 29 min 55 s
Bit rate : 44 b/s
Count of elements : 417
Stream size : 9.85 KiB (0%)
Title : Finnish
Language : Finnish
Default : No
Forced : No

Text #9
ID : 11
Format : UTF-8
Codec ID : S_TEXT/UTF8
Codec ID/Info : UTF-8 Plain Text
Duration : 29 min 55 s
Bit rate : 43 b/s
Count of elements : 382
Stream size : 9.51 KiB (0%)
Title : French
Language : French
Default : No
Forced : No

Text #10
ID : 12
Format : UTF-8
Codec ID : S_TEXT/UTF8
Codec ID/Info : UTF-8 Plain Text
Duration : 29 min 55 s
Bit rate : 48 b/s
Count of elements : 423
Stream size : 10.7 KiB (0%)
Title : Italian
Language : Italian
Default : No
Forced : No

Text #11
ID : 13
Format : UTF-8
Codec ID : S_TEXT/UTF8
Codec ID/Info : UTF-8 Plain Text
Duration : 29 min 55 s
Bit rate : 49 b/s
Count of elements : 351
Stream size : 10.8 KiB (0%)
Title : Dutch
Language : Dutch
Default : No
Forced : No

Text #12
ID : 14
Format : UTF-8
Codec ID : S_TEXT/UTF8
Codec ID/Info : UTF-8 Plain Text
Duration : 29 min 55 s
Bit rate : 44 b/s
Count of elements : 424
Stream size : 9.85 KiB (0%)
Title : Norwegian
Language : Norwegian
Default : No
Forced : No

Text #13
ID : 15
Format : UTF-8
Codec ID : S_TEXT/UTF8
Codec ID/Info : UTF-8 Plain Text
Duration : 29 min 55 s
Bit rate : 53 b/s
Count of elements : 406
Stream size : 11.7 KiB (0%)
Title : Portuguese
Language : Portuguese
Default : No
Forced : No

Text #14
ID : 16
Format : UTF-8
Codec ID : S_TEXT/UTF8
Codec ID/Info : UTF-8 Plain Text
Duration : 29 min 55 s
Bit rate : 51 b/s
Count of elements : 424
Stream size : 11.2 KiB (0%)
Title : Spanish
Language : Spanish
Default : No
Forced : No

Text #15
ID : 17
Format : UTF-8
Codec ID : S_TEXT/UTF8
Codec ID/Info : UTF-8 Plain Text
Duration : 29 min 55 s
Bit rate : 48 b/s
Count of elements : 328
Stream size : 10.7 KiB (0%)
Title : Swedish
Language : Swedish
Default : No
Forced : No





WandaVision S01E03


WandaVision S01E03


WandaVision S01E03


WandaVision S01E03


WandaVision S01E03

All episodes