Featured TV Shows


WandaVision S01E05

Posted By: Tavaz
1080p (FullHD) / WEBRip IMDb
WandaVision S01E05

WandaVision S01E05
WEBRip | MKV | 1920x1080 | English | H264 @ 6763 kbps | E-AC-3 @ 768 kbps | 38 min 9 s | 2.01 GiB
Subtitles: Français, Deutsch, Suomi, Español, Svenska, Italiano, Nederlands, Dansk, English, Português
Genre: Mystery, Comedy


Wanda Maximoff and Vision—two super-powered beings living idealized suburban lives—begin to suspect that everything is not as it seems.

6d94ede2b6bc462bafba7e7f3b2c6d10.mkv (2.0 GB)



General
Unique ID : 6379367261307584608392386496473574389 (0x4CC9F16EB7D236E337373924E77ABF5)
Complete name : ./6d94ede2b6bc462bafba7e7f3b2c6d10.mkv
Format : Matroska
Format version : Version 4 / Version 2
File size : 2.01 GiB
Duration : 38 min 9 s
Overall bit rate mode : Variable
Overall bit rate : 7 535 kb/s
Encoded date : UTC 2021-02-05 08:25:33
Writing application : mkvmerge v52.0.0 ('Secret For The Mad') 64-bit
Writing library : libebml v1.4.1 + libmatroska v1.6.2

Video
ID : 1
Format : AVC
Format/Info : Advanced Video Codec
Format profile : High@L4
Format settings : CABAC / 4 Ref Frames
Format settings, CABAC : Yes
Format settings, RefFrames : 4 frames
Codec ID : V_MPEG4/ISO/AVC
Duration : 38 min 9 s
Bit rate mode : Variable
Bit rate : 6 764 kb/s
Maximum bit rate : 12.7 Mb/s
Width : 1 920 pixels
Height : 1 080 pixels
Display aspect ratio : 16:9
Frame rate mode : Constant
Frame rate : 23.976 (24000/1001) FPS
Color space : YUV
Chroma subsampling : 4:2:0
Bit depth : 8 bits
Scan type : Progressive
Bits/(Pixel*Frame) : 0.136
Stream size : 1.80 GiB (90%)
Language : English
Default : Yes
Forced : No
Color range : Limited
Color primaries : BT.709
Transfer characteristics : BT.709
Matrix coefficients : BT.709

Audio
ID : 2
Format : E-AC-3
Format/Info : Enhanced Audio Coding 3
Format profile : E-AC-3+Atmos / E-AC-3
Format settings, Endianness : Big
Codec ID : A_EAC3
Duration : 38 min 9 s
Bit rate mode : Constant
Bit rate : 768 kb/s
Channel(s) : 15 objects / 6 channels
Channel positions : 15 objects / Front: L C R, Side: L R, LFE
Sampling rate : 48.0 kHz
Frame rate : 187.500 FPS (256 SPF)
Compression mode : Lossy
Stream size : 210 MiB (10%)
Language : English
Service kind : Complete Main
Default : Yes
Forced : No

Text #1
ID : 3
Format : UTF-8
Codec ID : S_TEXT/UTF8
Codec ID/Info : UTF-8 Plain Text
Duration : 33 min 50 s
Bit rate : 61 b/s
Count of elements : 372
Stream size : 15.3 KiB (0%)
Title : Dansk
Language : Danish
Default : No
Forced : No

Text #2
ID : 4
Format : UTF-8
Codec ID : S_TEXT/UTF8
Codec ID/Info : UTF-8 Plain Text
Duration : 33 min 47 s
Bit rate : 64 b/s
Count of elements : 526
Stream size : 16.1 KiB (0%)
Title : Deutsch
Language : German
Default : No
Forced : No

Text #3
ID : 5
Format : UTF-8
Codec ID : S_TEXT/UTF8
Codec ID/Info : UTF-8 Plain Text
Duration : 33 min 47 s
Bit rate : 79 b/s
Count of elements : 625
Stream size : 19.7 KiB (0%)
Title : English [CC]
Language : English
Default : No
Forced : No

Text #4
ID : 6
Format : UTF-8
Codec ID : S_TEXT/UTF8
Codec ID/Info : UTF-8 Plain Text
Duration : 35 min 36 s
Bit rate : 66 b/s
Count of elements : 561
Stream size : 17.4 KiB (0%)
Title : Español
Language : Spanish
Default : No
Forced : No

Text #5
ID : 7
Format : UTF-8
Codec ID : S_TEXT/UTF8
Codec ID/Info : UTF-8 Plain Text
Duration : 35 min 32 s
Bit rate : 64 b/s
Count of elements : 557
Stream size : 16.9 KiB (0%)
Title : Español (Latinoamericano)
Language : Spanish
Default : No
Forced : No

Text #6
ID : 8
Format : UTF-8
Codec ID : S_TEXT/UTF8
Codec ID/Info : UTF-8 Plain Text
Duration : 34 min 5 s
Bit rate : 58 b/s
Count of elements : 524
Stream size : 14.6 KiB (0%)
Title : Français
Language : French
Default : No
Forced : No

Text #7
ID : 9
Format : UTF-8
Codec ID : S_TEXT/UTF8
Codec ID/Info : UTF-8 Plain Text
Duration : 35 min 32 s
Bit rate : 66 b/s
Count of elements : 554
Stream size : 17.2 KiB (0%)
Title : Français (Canadien)
Language : French
Default : No
Forced : No

Text #8
ID : 10
Format : UTF-8
Codec ID : S_TEXT/UTF8
Codec ID/Info : UTF-8 Plain Text
Duration : 34 min 5 s
Bit rate : 64 b/s
Count of elements : 555
Stream size : 16.2 KiB (0%)
Title : Italiano
Language : Italian
Default : No
Forced : No

Text #9
ID : 11
Format : UTF-8
Codec ID : S_TEXT/UTF8
Codec ID/Info : UTF-8 Plain Text
Duration : 33 min 47 s
Bit rate : 65 b/s
Count of elements : 420
Stream size : 16.2 KiB (0%)
Title : Nederlands
Language : Dutch
Default : No
Forced : No

Text #10
ID : 12
Format : UTF-8
Codec ID : S_TEXT/UTF8
Codec ID/Info : UTF-8 Plain Text
Duration : 35 min 32 s
Bit rate : 56 b/s
Count of elements : 555
Stream size : 14.7 KiB (0%)
Title : Norsk
Language : Norwegian
Default : No
Forced : No

Text #11
ID : 13
Format : UTF-8
Codec ID : S_TEXT/UTF8
Codec ID/Info : UTF-8 Plain Text
Duration : 33 min 47 s
Bit rate : 67 b/s
Count of elements : 539
Stream size : 16.6 KiB (0%)
Title : Português
Language : Portuguese
Default : No
Forced : No

Text #12
ID : 14
Format : UTF-8
Codec ID : S_TEXT/UTF8
Codec ID/Info : UTF-8 Plain Text
Duration : 35 min 32 s
Bit rate : 67 b/s
Count of elements : 558
Stream size : 17.6 KiB (0%)
Title : Português (Brasil)
Language : Portuguese
Default : No
Forced : No

Text #13
ID : 15
Format : UTF-8
Codec ID : S_TEXT/UTF8
Codec ID/Info : UTF-8 Plain Text
Duration : 35 min 32 s
Bit rate : 56 b/s
Count of elements : 550
Stream size : 14.8 KiB (0%)
Title : Suomi
Language : Finnish
Default : No
Forced : No

Text #14
ID : 16
Format : UTF-8
Codec ID : S_TEXT/UTF8
Codec ID/Info : UTF-8 Plain Text
Duration : 33 min 47 s
Bit rate : 64 b/s
Count of elements : 465
Stream size : 16.1 KiB (0%)
Title : Svenska
Language : Swedish
Default : No
Forced : No





WandaVision S01E05


WandaVision S01E05


WandaVision S01E05


WandaVision S01E05


WandaVision S01E05

All episodes