Featured TV Shows


WandaVision S01E05

Posted By: Tavaz
720p (HD) / WEBRip IMDb
WandaVision S01E05

WandaVision S01E05
WEBRip | MOV | 1280x720 | H264 @ 3336 kbps | AAC @ 120 kbps | 41 min 17 s | 1 022 MiB
Genre: Mystery, Comedy


Wanda Maximoff and Vision—two super-powered beings living idealized suburban lives—begin to suspect that everything is not as it seems.

e48c1fc787d1c7a9fa3a60128660e860.mp4 (1022.4 MB)



General
Complete name : ./e48c1fc787d1c7a9fa3a60128660e860.mp4
Format : MPEG-4
Format profile : Base Media
Codec ID : isom (isom/iso2/avc1/mp41)
File size : 1 022 MiB
Duration : 41 min 17 s
Overall bit rate mode : Variable
Overall bit rate : 3 462 kb/s
Writing application : Lavf57.56.101

Video
ID : 1
Format : AVC
Format/Info : Advanced Video Codec
Format profile : High@L3.1
Format settings : CABAC / 4 Ref Frames
Format settings, CABAC : Yes
Format settings, RefFrames : 4 frames
Codec ID : avc1
Codec ID/Info : Advanced Video Coding
Duration : 41 min 17 s
Bit rate mode : Variable
Bit rate : 3 337 kb/s
Maximum bit rate : 6 375 kb/s
Width : 1 280 pixels
Height : 720 pixels
Display aspect ratio : 16:9
Frame rate mode : Constant
Frame rate : 23.976 (24000/1001) FPS
Color space : YUV
Chroma subsampling : 4:2:0
Bit depth : 8 bits
Scan type : Progressive
Bits/(Pixel*Frame) : 0.151
Stream size : 985 MiB (96%)
Color range : Limited
Color primaries : BT.709
Transfer characteristics : BT.709
Matrix coefficients : BT.709

Audio
ID : 2
Format : AAC
Format/Info : Advanced Audio Codec
Format profile : LC
Codec ID : mp4a-40-2
Duration : 41 min 17 s
Bit rate mode : Variable
Bit rate : 120 kb/s
Maximum bit rate : 128 kb/s
Channel(s) : 2 channels
Channel positions : Front: L R
Sampling rate : 48.0 kHz
Frame rate : 46.875 FPS (1024 SPF)
Compression mode : Lossy
Stream size : 35.6 MiB (3%)
Default : Yes
Alternate group : 1





WandaVision S01E05


WandaVision S01E05


WandaVision S01E05


WandaVision S01E05


WandaVision S01E05

All episodes