Featured TV Shows


WandaVision S01E06

Posted By: Tavaz
1080p (FullHD) / WEB-DL IMDb
WandaVision S01E06

WandaVision S01E06
WEB-DL | MKV | 1920x1080 | English | H264 @ 7214 kbps | E-AC-3 @ 768 kbps | 34 min 42 s | 1.94 GiB
Subtitles: Français, Deutsch, Suomi, Español, Svenska, Italiano, Nederlands, Dansk, English, Português
Genre: Mystery, Comedy


Wanda Maximoff and Vision—two super-powered beings living idealized suburban lives—begin to suspect that everything is not as it seems.

ce3a0c8945ab48aebe565f94a3e0718d.mkv (1.9 GB)



General
Unique ID : 141298606496250426039674349025458673387 (0x6A4D1F2A0899A4970EA52188D59456EB)
Complete name : ./ce3a0c8945ab48aebe565f94a3e0718d.mkv
Format : Matroska
Format version : Version 4 / Version 2
File size : 1.94 GiB
Duration : 34 min 42 s
Overall bit rate mode : Variable
Overall bit rate : 7 986 kb/s
Encoded date : UTC 2021-02-12 08:42:55
Writing application : mkvmerge v49.0.0 ('Sick Of Losing Soulmates') 64-bit
Writing library : libebml v1.4.0 + libmatroska v1.6.1

Video
ID : 1
Format : AVC
Format/Info : Advanced Video Codec
Format profile : High@L4
Format settings : CABAC / 4 Ref Frames
Format settings, CABAC : Yes
Format settings, RefFrames : 4 frames
Codec ID : V_MPEG4/ISO/AVC
Duration : 34 min 42 s
Bit rate mode : Variable
Bit rate : 7 215 kb/s
Maximum bit rate : 12.7 Mb/s
Width : 1 920 pixels
Height : 1 080 pixels
Display aspect ratio : 16:9
Frame rate mode : Constant
Frame rate : 23.976 (24000/1001) FPS
Color space : YUV
Chroma subsampling : 4:2:0
Bit depth : 8 bits
Scan type : Progressive
Bits/(Pixel*Frame) : 0.145
Stream size : 1.75 GiB (90%)
Default : Yes
Forced : No
Color range : Limited
Color primaries : BT.709
Transfer characteristics : BT.709
Matrix coefficients : BT.709

Audio
ID : 2
Format : E-AC-3
Format/Info : Enhanced Audio Coding 3
Format profile : E-AC-3+Atmos / E-AC-3
Format settings, Endianness : Big
Codec ID : A_EAC3
Duration : 34 min 42 s
Bit rate mode : Constant
Bit rate : 768 kb/s
Channel(s) : 15 objects / 6 channels
Channel positions : 15 objects / Front: L C R, Side: L R, LFE
Sampling rate : 48.0 kHz
Frame rate : 187.500 FPS (256 SPF)
Compression mode : Lossy
Stream size : 191 MiB (10%)
Title : English
Language : English
Service kind : Complete Main
Default : Yes
Forced : No

Text #1
ID : 3
Format : UTF-8
Codec ID : S_TEXT/UTF8
Codec ID/Info : UTF-8 Plain Text
Duration : 34 min 36 s
Bit rate : 41 b/s
Count of elements : 275
Stream size : 10.6 KiB (0%)
Title : Dansk
Language : Danish
Default : No
Forced : No

Text #2
ID : 4
Format : UTF-8
Codec ID : S_TEXT/UTF8
Codec ID/Info : UTF-8 Plain Text
Duration : 34 min 36 s
Bit rate : 42 b/s
Count of elements : 363
Stream size : 10.8 KiB (0%)
Title : Deutsch
Language : German
Default : No
Forced : No

Text #3
ID : 5
Format : UTF-8
Codec ID : S_TEXT/UTF8
Codec ID/Info : UTF-8 Plain Text
Duration : 30 min 12 s
Bit rate : 63 b/s
Count of elements : 455
Stream size : 14.0 KiB (0%)
Title : English (SDH)
Language : English
Default : No
Forced : No

Text #4
ID : 6
Format : UTF-8
Codec ID : S_TEXT/UTF8
Codec ID/Info : UTF-8 Plain Text
Duration : 34 min 36 s
Bit rate : 47 b/s
Count of elements : 404
Stream size : 12.1 KiB (0%)
Title : Español
Language : Spanish
Default : No
Forced : No

Text #5
ID : 7
Format : UTF-8
Codec ID : S_TEXT/UTF8
Codec ID/Info : UTF-8 Plain Text
Duration : 34 min 36 s
Bit rate : 47 b/s
Count of elements : 405
Stream size : 12.0 KiB (0%)
Title : Español (Latinoamericano)
Language : Spanish
Default : No
Forced : No

Text #6
ID : 8
Format : UTF-8
Codec ID : S_TEXT/UTF8
Codec ID/Info : UTF-8 Plain Text
Duration : 34 min 36 s
Bit rate : 40 b/s
Count of elements : 384
Stream size : 10.2 KiB (0%)
Title : Français
Language : French
Default : No
Forced : No

Text #7
ID : 9
Format : UTF-8
Codec ID : S_TEXT/UTF8
Codec ID/Info : UTF-8 Plain Text
Duration : 30 min 13 s
Bit rate : 45 b/s
Count of elements : 381
Stream size : 10.1 KiB (0%)
Title : Français (Canadien)
Language : French
Default : No
Forced : No

Text #8
ID : 10
Format : UTF-8
Codec ID : S_TEXT/UTF8
Codec ID/Info : UTF-8 Plain Text
Duration : 34 min 36 s
Bit rate : 44 b/s
Count of elements : 399
Stream size : 11.3 KiB (0%)
Title : Italiano
Language : Italian
Default : No
Forced : No

Text #9
ID : 11
Format : UTF-8
Codec ID : S_TEXT/UTF8
Codec ID/Info : UTF-8 Plain Text
Duration : 34 min 36 s
Bit rate : 45 b/s
Count of elements : 330
Stream size : 11.5 KiB (0%)
Title : Nederlands
Language : Dutch
Default : No
Forced : No

Text #10
ID : 12
Format : UTF-8
Codec ID : S_TEXT/UTF8
Codec ID/Info : UTF-8 Plain Text
Duration : 34 min 36 s
Bit rate : 40 b/s
Count of elements : 401
Stream size : 10.3 KiB (0%)
Title : Norsk
Language : Norwegian
Default : No
Forced : No

Text #11
ID : 13
Format : UTF-8
Codec ID : S_TEXT/UTF8
Codec ID/Info : UTF-8 Plain Text
Duration : 34 min 36 s
Bit rate : 46 b/s
Count of elements : 389
Stream size : 11.8 KiB (0%)
Title : Português
Language : Portuguese
Default : No
Forced : No

Text #12
ID : 14
Format : UTF-8
Codec ID : S_TEXT/UTF8
Codec ID/Info : UTF-8 Plain Text
Duration : 34 min 36 s
Bit rate : 47 b/s
Count of elements : 405
Stream size : 12.0 KiB (0%)
Title : Português (Brasil)
Language : Portuguese
Default : No
Forced : No

Text #13
ID : 15
Format : UTF-8
Codec ID : S_TEXT/UTF8
Codec ID/Info : UTF-8 Plain Text
Duration : 34 min 36 s
Bit rate : 41 b/s
Count of elements : 399
Stream size : 10.6 KiB (0%)
Title : Suomi
Language : Finnish
Default : No
Forced : No

Text #14
ID : 16
Format : UTF-8
Codec ID : S_TEXT/UTF8
Codec ID/Info : UTF-8 Plain Text
Duration : 34 min 36 s
Bit rate : 45 b/s
Count of elements : 314
Stream size : 11.6 KiB (0%)
Title : Svenska
Language : Swedish
Default : No
Forced : No





WandaVision S01E06


WandaVision S01E06


WandaVision S01E06


WandaVision S01E06


WandaVision S01E06

All episodes