Featured TV Shows


WandaVision S01E08

Posted By: Tavaz
720p (HD) / WEBRip IMDb
WandaVision S01E08

WandaVision S01E08
WEBRip | MOV | 1280x720 | H264 @ 3032 kbps | AAC @ 113 kbps | 46 min 9 s | 1.02 GiB
Genre: Mystery, Drama


Wanda Maximoff and Vision—two super-powered beings living idealized suburban lives—begin to suspect that everything is not as it seems.

301a8b60130c91fe1e3ad98fcf2370cc.mp4 (1.0 GB)



General
Complete name : ./301a8b60130c91fe1e3ad98fcf2370cc.mp4
Format : MPEG-4
Format profile : Base Media
Codec ID : isom (isom/iso2/avc1/mp41)
File size : 1.02 GiB
Duration : 46 min 9 s
Overall bit rate mode : Variable
Overall bit rate : 3 151 kb/s
Writing application : Lavf57.56.101

Video
ID : 1
Format : AVC
Format/Info : Advanced Video Codec
Format profile : High@L3.1
Format settings : CABAC / 4 Ref Frames
Format settings, CABAC : Yes
Format settings, RefFrames : 4 frames
Codec ID : avc1
Codec ID/Info : Advanced Video Coding
Duration : 46 min 8 s
Bit rate mode : Variable
Bit rate : 3 032 kb/s
Maximum bit rate : 6 375 kb/s
Width : 1 280 pixels
Height : 720 pixels
Display aspect ratio : 16:9
Frame rate mode : Constant
Frame rate : 23.976 (24000/1001) FPS
Color space : YUV
Chroma subsampling : 4:2:0
Bit depth : 8 bits
Scan type : Progressive
Bits/(Pixel*Frame) : 0.137
Stream size : 1 001 MiB (96%)
Color range : Limited
Color primaries : BT.709
Transfer characteristics : BT.709
Matrix coefficients : BT.709

Audio
ID : 2
Format : AAC
Format/Info : Advanced Audio Codec
Format profile : LC
Codec ID : mp4a-40-2
Duration : 46 min 9 s
Bit rate mode : Variable
Bit rate : 114 kb/s
Maximum bit rate : 128 kb/s
Channel(s) : 2 channels
Channel positions : Front: L R
Sampling rate : 48.0 kHz
Frame rate : 46.875 FPS (1024 SPF)
Compression mode : Lossy
Stream size : 37.5 MiB (4%)
Default : Yes
Alternate group : 1





WandaVision S01E08


WandaVision S01E08


WandaVision S01E08


WandaVision S01E08


WandaVision S01E08

All episodes