Index
# A B C D E F G H I J K L M N O P Q R S T U V W X Y Z
Tags
Language
Tags
July 2024
Su Mo Tu We Th Fr Sa
30 1 2 3 4 5 6
7 8 9 10 11 12 13
14 15 16 17 18 19 20
21 22 23 24 25 26 27
28 29 30 31 1 2 3

Featured TV Shows


Champions S01E01

Posted By: Tavaz
1080p (FullHD) / WEBRip IMDb
Champions S01E01

Champions S01E01
WEBRip | MOV | 1920x1080 | English / Español / Français / Italiano / Deutsch | H264 @ 4806 kbps | AAC @ 127 kbps | 30 min 10 s | 1.99 GiB
Subtitles: Italiano, Español, Français, English, Deutsch
Genre: Comedy


Vince, a charismatic gym owner with no ambition lives with his younger brother Michael, a gorgeous idiot. Their simple life of women and working out is put on hold when the teenage son of Vince is dropped off on their doorstep by Priya, one of his old high school flings.

36a876690dbd45d8b37054b454328f6f.mkv (2.0 GB)



General
Complete name : ./36a876690dbd45d8b37054b454328f6f.mkv
Format : MPEG-4
Format profile : Base Media
Codec ID : isom (isom/iso2/avc1/mp41)
File size : 1.99 GiB
Duration : 30 min 10 s
Overall bit rate mode : Variable
Overall bit rate : 9 419 kb/s
Cover : Yes
FileExtension_Invalid : mov mp4 m4v m4a m4b m4p 3ga 3gpa 3gpp 3gp 3gpp2 3g2 k3g jpm jpx mqv ismv isma ismt f4a f4b f4v

Video
ID : 13
Format : AVC
Format/Info : Advanced Video Codec
Format profile : Main@L4
Format settings : CABAC / 1 Ref Frames
Format settings, CABAC : Yes
Format settings, RefFrames : 1 frame
Codec ID : avc1
Codec ID/Info : Advanced Video Coding
Duration : 30 min 9 s
Bit rate mode : Variable
Bit rate : 4 806 kb/s
Maximum bit rate : 6 000 kb/s
Width : 1 920 pixels
Height : 1 080 pixels
Display aspect ratio : 16:9
Frame rate mode : Constant
Frame rate : 23.976 FPS
Original frame rate : 29.970 (30000/1001) FPS
Color space : YUV
Chroma subsampling : 4:2:0
Bit depth : 8 bits
Scan type : Progressive
Bits/(Pixel*Frame) : 0.097
Stream size : 1.01 GiB (51%)
Default : Yes
Alternate group : 12

Audio #1
ID : 1
Format : AAC
Format/Info : Advanced Audio Codec
Format profile : HE-AAC / LC
Format settings : Explicit
Codec ID : mp4a-40-2
Duration : 30 min 10 s
Bit rate mode : Constant
Bit rate : 128 kb/s
Channel(s) : 2 channels
Channel positions : Front: L R
Sampling rate : 48.0 kHz / 24.0 kHz
Frame rate : 23.438 FPS (1024 SPF)
Compression mode : Lossy
Stream size : 27.6 MiB (1%)
Title : allemand
Language : German

Audio #2
ID : 2
Format : AAC
Format/Info : Advanced Audio Codec
Format profile : HE-AAC / LC
Format settings : Explicit
Codec ID : mp4a-40-2
Duration : 30 min 10 s
Bit rate mode : Constant
Bit rate : 128 kb/s
Channel(s) : 2 channels
Channel positions : Front: L R
Sampling rate : 48.0 kHz / 24.0 kHz
Frame rate : 23.438 FPS (1024 SPF)
Compression mode : Lossy
Stream size : 27.6 MiB (1%)
Title : anglais [VO]
Language : English
Default : Yes
Alternate group : 1

Audio #3
ID : 3
Format : AAC
Format/Info : Advanced Audio Codec
Format profile : HE-AAC / LC
Format settings : Explicit
Codec ID : mp4a-40-2
Duration : 30 min 10 s
Bit rate mode : Constant
Bit rate : 128 kb/s
Channel(s) : 2 channels
Channel positions : Front: L R
Sampling rate : 48.0 kHz / 24.0 kHz
Frame rate : 23.438 FPS (1024 SPF)
Compression mode : Lossy
Stream size : 27.6 MiB (1%)
Title : espagnol
Language : Spanish
Default : Yes
Alternate group : 2

Audio #4
ID : 4
Format : AAC
Format/Info : Advanced Audio Codec
Format profile : HE-AAC / LC
Format settings : Explicit
Codec ID : mp4a-40-2
Duration : 30 min 10 s
Bit rate mode : Constant
Bit rate : 128 kb/s
Channel(s) : 2 channels
Channel positions : Front: L R
Sampling rate : 48.0 kHz / 24.0 kHz
Frame rate : 23.438 FPS (1024 SPF)
Compression mode : Lossy
Stream size : 27.6 MiB (1%)
Title : français
Language : French
Default : Yes
Alternate group : 3

Audio #5
ID : 5
Format : AAC
Format/Info : Advanced Audio Codec
Format profile : HE-AAC / LC
Format settings : Explicit
Codec ID : mp4a-40-2
Duration : 30 min 10 s
Bit rate mode : Constant
Bit rate : 128 kb/s
Channel(s) : 2 channels
Channel positions : Front: L R
Sampling rate : 48.0 kHz / 24.0 kHz
Frame rate : 23.438 FPS (1024 SPF)
Compression mode : Lossy
Stream size : 27.6 MiB (1%)
Title : italien
Language : Italian
Default : Yes
Alternate group : 4

Audio #6
ID : 6
Format : E-AC-3
Format/Info : Enhanced Audio Coding 3
Format settings, Endianness : Big
Codec ID : ec-3
Duration : 30 min 10 s
Bit rate mode : Constant
Bit rate : 640 kb/s
Channel(s) : 6 channels
Channel positions : Front: L C R, Side: L R, LFE
Sampling rate : 48.0 kHz
Frame rate : 187.500 FPS (256 SPF)
Bit depth : 16 bits
Compression mode : Lossy
Stream size : 138 MiB (7%)
Title : allemand - Dolby
Language : German
Service kind : Complete Main
Default : Yes
Alternate group : 5

Audio #7
ID : 7
Format : E-AC-3
Format/Info : Enhanced Audio Coding 3
Format settings, Endianness : Big
Codec ID : ec-3
Duration : 30 min 10 s
Bit rate mode : Constant
Bit rate : 640 kb/s
Channel(s) : 6 channels
Channel positions : Front: L C R, Side: L R, LFE
Sampling rate : 48.0 kHz
Frame rate : 187.500 FPS (256 SPF)
Bit depth : 16 bits
Compression mode : Lossy
Stream size : 138 MiB (7%)
Title : anglais [VO] - Dolby
Language : English
Service kind : Complete Main
Default : Yes
Alternate group : 6

Audio #8
ID : 8
Format : E-AC-3
Format/Info : Enhanced Audio Coding 3
Format settings, Endianness : Big
Codec ID : ec-3
Duration : 30 min 10 s
Bit rate mode : Constant
Bit rate : 640 kb/s
Channel(s) : 6 channels
Channel positions : Front: L C R, Side: L R, LFE
Sampling rate : 48.0 kHz
Frame rate : 187.500 FPS (256 SPF)
Bit depth : 16 bits
Compression mode : Lossy
Stream size : 138 MiB (7%)
Title : espagnol - Dolby
Language : Spanish
Service kind : Complete Main
Default : Yes
Alternate group : 7

Audio #9
ID : 9
Format : E-AC-3
Format/Info : Enhanced Audio Coding 3
Format settings, Endianness : Big
Codec ID : ec-3
Duration : 30 min 10 s
Bit rate mode : Constant
Bit rate : 640 kb/s
Channel(s) : 6 channels
Channel positions : Front: L C R, Side: L R, LFE
Sampling rate : 48.0 kHz
Frame rate : 187.500 FPS (256 SPF)
Bit depth : 16 bits
Compression mode : Lossy
Stream size : 138 MiB (7%)
Title : français - Dolby
Language : French
Service kind : Complete Main
Default : Yes
Alternate group : 8

Audio #10
ID : 10
Format : E-AC-3
Format/Info : Enhanced Audio Coding 3
Format settings, Endianness : Big
Codec ID : ec-3
Duration : 30 min 10 s
Bit rate mode : Constant
Bit rate : 640 kb/s
Channel(s) : 6 channels
Channel positions : Front: L C R, Side: L R, LFE
Sampling rate : 48.0 kHz
Frame rate : 187.500 FPS (256 SPF)
Bit depth : 16 bits
Compression mode : Lossy
Stream size : 138 MiB (7%)
Title : italien
Language : Italian
Service kind : Complete Main
Default : Yes
Alternate group : 9

Audio #11
ID : 11
Format : AAC
Format/Info : Advanced Audio Codec
Format profile : HE-AAC / LC
Format settings : Explicit
Codec ID : mp4a-40-2
Duration : 30 min 10 s
Bit rate mode : Constant
Bit rate : 128 kb/s
Channel(s) : 2 channels
Channel positions : Front: L R
Sampling rate : 48.0 kHz / 24.0 kHz
Frame rate : 23.438 FPS (1024 SPF)
Compression mode : Lossy
Stream size : 27.6 MiB (1%)
Title : anglais - Description sonore
Language : English
Default : Yes
Alternate group : 10

Audio #12
ID : 12
Format : E-AC-3
Format/Info : Enhanced Audio Coding 3
Format settings, Endianness : Big
Codec ID : ec-3
Duration : 30 min 10 s
Bit rate mode : Constant
Bit rate : 640 kb/s
Channel(s) : 6 channels
Channel positions : Front: L C R, Side: L R, LFE
Sampling rate : 48.0 kHz
Frame rate : 187.500 FPS (256 SPF)
Bit depth : 16 bits
Compression mode : Lossy
Stream size : 138 MiB (7%)
Title : anglais - Description sonore - Dolby
Language : English
Service kind : Complete Main
Default : Yes
Alternate group : 11

Text #1
ID : 14
Format : Timed Text
Muxing mode : sbtl
Codec ID : tx3g
Duration : 29 min 11 s
Bit rate mode : Variable
Bit rate : 87 b/s
Stream size : 18.6 KiB (0%)
Title : allemand
Language : German
Default : Yes
Forced : No
Alternate group : 13

Text #2
ID : 15
Format : Timed Text
Muxing mode : sbtl
Codec ID : tx3g
Duration : 29 min 11 s
Bit rate mode : Variable
Bit rate : 88 b/s
Stream size : 18.8 KiB (0%)
Title : espagnol
Language : Spanish
Default : No
Forced : No
Alternate group : 14

Text #3
ID : 16
Format : Timed Text
Muxing mode : sbtl
Codec ID : tx3g
Duration : 29 min 11 s
Bit rate mode : Variable
Bit rate : 89 b/s
Stream size : 19.1 KiB (0%)
Title : français
Language : French
Default : No
Forced : No
Alternate group : 15

Text #4
ID : 17
Format : Timed Text
Muxing mode : sbtl
Codec ID : tx3g
Duration : 29 min 11 s
Bit rate mode : Variable
Bit rate : 89 b/s
Stream size : 19.1 KiB (0%)
Title : italien
Language : Italian
Default : No
Forced : No
Alternate group : 16

Text #5
ID : 18
Format : Timed Text
Muxing mode : sbtl
Codec ID : tx3g
Duration : 28 min 43 s
Bit rate mode : Variable
Bit rate : 103 b/s
Stream size : 21.7 KiB (0%)
Title : anglais
Language : English
Default : No
Forced : No
Alternate group : 17





Champions S01E01


Champions S01E01


Champions S01E01


Champions S01E01


Champions S01E01

All episodes