Index
# A B C D E F G H I J K L M N O P Q R S T U V W Y Z
Tags
Language
Tags
January 2023
Su Mo Tu We Th Fr Sa
1 2 3 4 5 6 7
8 9 10 11 12 13 14
15 16 17 18 19 20 21
22 23 24 25 26 27 28
29 30 31 1 2 3 4

Featured TV Shows


We Own This City S01E01

Posted By: Tavaz
1080p (FullHD) / WEBRip IMDb
We Own This City S01E01

We Own This City S01E01
WEBRip | MKV | 1920x1080 | English | H264 @ 8250 kbps | AC-3 @ 384 kbps | 58 min 18 s | 3.52 GiB
Subtitles: Español, English
Genre: Crime, Drama


The story of the rise and fall of the Baltimore Police Department's Gun Trace Task Force — and the corruption and moral collapse that befell an American city in which the policies of drug prohibition and mass arrest were championed at the expense of actual police work.

f1ce1bc625e64b08bda6c13c31cad0e7.mkv (3.5 GB)



General
Unique ID : 93170789848976143283588964949355659049 (0x46180A99ED3D7FC1CB950AC3366BFF29)
Complete name : ./f1ce1bc625e64b08bda6c13c31cad0e7.mkv
Format : Matroska
Format version : Version 4 / Version 2
File size : 3.52 GiB
Duration : 58 min 18 s
Overall bit rate mode : Variable
Overall bit rate : 8 631 kb/s
Writing application : mkvmerge v64.0.0 ('Willows') 64-bit
Writing library : libebml v1.4.2 + libmatroska v1.6.4

Video
ID : 1
Format : AVC
Format/Info : Advanced Video Codec
Format profile : High@L4
Format settings : CABAC / 4 Ref Frames
Format settings, CABAC : Yes
Format settings, RefFrames : 4 frames
Codec ID : V_MPEG4/ISO/AVC
Duration : 58 min 18 s
Bit rate mode : Variable
Bit rate : 8 250 kb/s
Maximum bit rate : 12.4 Mb/s
Width : 1 920 pixels
Height : 1 080 pixels
Display aspect ratio : 16:9
Frame rate mode : Constant
Frame rate : 23.976 (24000/1001) FPS
Color space : YUV
Chroma subsampling : 4:2:0
Bit depth : 8 bits
Scan type : Progressive
Bits/(Pixel*Frame) : 0.166
Stream size : 3.36 GiB (96%)
Writing library : x264 core 157 r2965 861cec4
Encoding settings : cabac=1 / ref=4 / deblock=1:0:0 / analyse=0x3:0x113 / me=hex / subme=7 / psy=1 / psy_rd=1.00:0.00 / mixed_ref=1 / me_range=16 / chroma_me=1 / trellis=1 / 8x8dct=1 / cqm=0 / deadzone=21,11 / fast_pskip=1 / chroma_qp_offset=-2 / threads=34 / lookahead_threads=5 / sliced_threads=0 / nr=0 / decimate=1 / interlaced=0 / bluray_compat=0 / constrained_intra=0 / bframes=3 / b_pyramid=2 / b_adapt=1 / b_bias=0 / direct=1 / weightb=1 / open_gop=0 / weightp=2 / keyint=96 / keyint_min=96 / scenecut=40 / intra_refresh=0 / rc_lookahead=40 / rc=2pass / mbtree=1 / bitrate=8250 / ratetol=1.0 / qcomp=0.60 / qpmin=0 / qpmax=69 / qpstep=4 / cplxblur=20.0 / qblur=0.5 / vbv_maxrate=12375 / vbv_bufsize=6187 / nal_hrd=vbr / filler=0 / ip_ratio=1.40 / aq=1:1.00
Default : Yes
Forced : No
Color range : Limited
Color primaries : BT.709
Transfer characteristics : BT.709
Matrix coefficients : BT.709

Audio
ID : 2
Format : AC-3
Format/Info : Audio Coding 3
Format settings, Endianness : Big
Codec ID : A_AC3
Duration : 58 min 18 s
Bit rate mode : Constant
Bit rate : 384 kb/s
Channel(s) : 6 channels
Channel positions : Front: L C R, Side: L R, LFE
Sampling rate : 48.0 kHz
Frame rate : 31.250 FPS (1536 SPF)
Bit depth : 16 bits
Compression mode : Lossy
Stream size : 160 MiB (4%)
Language : English
Service kind : Complete Main
Default : Yes
Forced : No

Text #1
ID : 3
Format : UTF-8
Codec ID : S_TEXT/UTF8
Codec ID/Info : UTF-8 Plain Text
Duration : 56 min 43 s
Bit rate : 92 b/s
Count of elements : 1152
Stream size : 38.6 KiB (0%)
Language : English
Default : No
Forced : No

Text #2
ID : 4
Format : UTF-8
Codec ID : S_TEXT/UTF8
Codec ID/Info : UTF-8 Plain Text
Duration : 58 min 6 s
Bit rate : 105 b/s
Count of elements : 1259
Stream size : 45.1 KiB (0%)
Title : SDH
Language : English
Default : No
Forced : No

Text #3
ID : 5
Format : UTF-8
Codec ID : S_TEXT/UTF8
Codec ID/Info : UTF-8 Plain Text
Duration : 56 min 48 s
Bit rate : 88 b/s
Count of elements : 1208
Stream size : 37.0 KiB (0%)
Language : Spanish
Default : No
Forced : No

Text #4
ID : 6
Format : UTF-8
Codec ID : S_TEXT/UTF8
Codec ID/Info : UTF-8 Plain Text
Duration : 58 min 11 s
Bit rate : 102 b/s
Count of elements : 1310
Stream size : 43.6 KiB (0%)
Title : SDH
Language : Spanish
Default : No
Forced : No

Menu
00:00:00.000 : en:Chapter 1
00:06:08.034 : en:Intro
00:07:37.082 : en:Chapter 2
00:57:00.000 : en:Credits





We Own This City S01E01


We Own This City S01E01


We Own This City S01E01


We Own This City S01E01


We Own This City S01E01

All episodes