Index
# A B C D E F G H I J K L M N O P Q R S T U V W Y Z
Tags
Language
Tags

Featured TV Shows


Welcome to Flatch S01E03

Posted By: Tavaz
720p (HD) / WEBRip IMDb
Welcome to Flatch S01E03

Welcome to Flatch S01E03
WEBRip | MKV | 1280x720 | English | H264 @ 2879 kbps | E-AC-3 @ 256 kbps | 21 min 43 s | 487 MiB
Subtitles: English
Genre: Commedia


When a documentary crew sets out to explore the lives of residents in a small American town – their dreams, their concerns – they stumble upon the midwestern town of Flatch, which is made up of many eccentric personalities. It’s a place you want to visit and maybe even stay. If there was a decent motel. Which there is not.

c3976935715f46eea578dc38e0420302.mkv (487.4 MB)



General
Unique ID : 228884013000999231062504928064943140006 (0xAC31751AFC41B1AFAF63BB714FA7ACA6)
Complete name : ./c3976935715f46eea578dc38e0420302.mkv
Format : Matroska
Format version : Version 4 / Version 2
File size : 487 MiB
Duration : 21 min 43 s
Overall bit rate : 3 137 kb/s
Writing application : mkvmerge v66.0.0 ('Josie') 64-bit
Writing library : libebml v1.4.2 + libmatroska v1.6.4

Video
ID : 1
Format : AVC
Format/Info : Advanced Video Codec
Format profile : High@L3.1
Format settings : CABAC / 5 Ref Frames
Format settings, CABAC : Yes
Format settings, RefFrames : 5 frames
Codec ID : V_MPEG4/ISO/AVC
Duration : 21 min 43 s
Bit rate : 2 879 kb/s
Width : 1 280 pixels
Height : 720 pixels
Display aspect ratio : 16:9
Frame rate mode : Constant
Frame rate : 23.976 (24000/1001) FPS
Color space : YUV
Chroma subsampling : 4:2:0
Bit depth : 8 bits
Scan type : Progressive
Bits/(Pixel*Frame) : 0.130
Stream size : 447 MiB (92%)
Default : Yes
Forced : No

Audio
ID : 2
Format : E-AC-3
Format/Info : Enhanced Audio Coding 3
Format settings, Endianness : Big
Codec ID : A_EAC3
Duration : 21 min 43 s
Bit rate mode : Constant
Bit rate : 256 kb/s
Channel(s) : 6 channels
Channel positions : Front: L C R, Side: L R, LFE
Sampling rate : 48.0 kHz
Frame rate : 187.500 FPS (256 SPF)
Compression mode : Lossy
Stream size : 39.8 MiB (8%)
Language : English
Service kind : Complete Main
Default : Yes
Forced : No

Text #1
ID : 3
Format : UTF-8
Codec ID : S_TEXT/UTF8
Codec ID/Info : UTF-8 Plain Text
Duration : 21 min 15 s
Bit rate : 104 b/s
Count of elements : 511
Stream size : 16.3 KiB (0%)
Language : English
Default : No
Forced : No

Text #2
ID : 4
Format : UTF-8
Codec ID : S_TEXT/UTF8
Codec ID/Info : UTF-8 Plain Text
Duration : 21 min 29 s
Bit rate : 109 b/s
Count of elements : 532
Stream size : 17.2 KiB (0%)
Title : SDH
Language : English
Default : No
Forced : No

Menu
00:00:00.000 : en:Chapter 1
00:05:13.022 : en:Chapter 2
00:10:19.008 : en:Chapter 3
00:15:17.007 : en:Chapter 4





Welcome to Flatch S01E03


Welcome to Flatch S01E03


Welcome to Flatch S01E03


Welcome to Flatch S01E03


Welcome to Flatch S01E03

All episodes