Index
# A B C D E F G H I J K L M N O P Q R S T U V W Y Z
Tags
Language
Tags

Featured TV Shows


Welcome to Flatch S01E07

Posted By: Tavaz
720p (HD) / WEBRip IMDb
Welcome to Flatch S01E07

Welcome to Flatch S01E07
WEBRip | MKV | 1280x720 | English | H264 @ 2665 kbps | E-AC-3 @ 256 kbps | 21 min 43 s | 454 MiB
Subtitles: English
Genre: Comedy


When a documentary crew sets out to explore the lives of residents in a small American town – their dreams, their concerns – they stumble upon the midwestern town of Flatch, which is made up of many eccentric personalities. It’s a place you want to visit and maybe even stay. If there was a decent motel. Which there is not.

f5d86da6aa53421dab544fc86c5cc1be.mkv (454.1 MB)



General
Unique ID : 193126433871406901481940872963472761326 (0x914ACC57226C271A8E67FB38A89421EE)
Complete name : ./f5d86da6aa53421dab544fc86c5cc1be.mkv
Format : Matroska
Format version : Version 4 / Version 2
File size : 454 MiB
Duration : 21 min 43 s
Overall bit rate : 2 923 kb/s
Writing application : mkvmerge v66.0.0 ('Josie') 64-bit
Writing library : libebml v1.4.2 + libmatroska v1.6.4

Video
ID : 1
Format : AVC
Format/Info : Advanced Video Codec
Format profile : High@L3.1
Format settings : CABAC / 5 Ref Frames
Format settings, CABAC : Yes
Format settings, RefFrames : 5 frames
Codec ID : V_MPEG4/ISO/AVC
Duration : 21 min 42 s
Bit rate : 2 665 kb/s
Width : 1 280 pixels
Height : 720 pixels
Display aspect ratio : 16:9
Frame rate mode : Constant
Frame rate : 23.976 (24000/1001) FPS
Color space : YUV
Chroma subsampling : 4:2:0
Bit depth : 8 bits
Scan type : Progressive
Bits/(Pixel*Frame) : 0.121
Stream size : 414 MiB (91%)
Default : Yes
Forced : No

Audio
ID : 2
Format : E-AC-3
Format/Info : Enhanced Audio Coding 3
Format settings, Endianness : Big
Codec ID : A_EAC3
Duration : 21 min 43 s
Bit rate mode : Constant
Bit rate : 256 kb/s
Channel(s) : 6 channels
Channel positions : Front: L C R, Side: L R, LFE
Sampling rate : 48.0 kHz
Frame rate : 187.500 FPS (256 SPF)
Compression mode : Lossy
Stream size : 39.8 MiB (9%)
Language : English
Service kind : Complete Main
Default : Yes
Forced : No

Text #1
ID : 3
Format : UTF-8
Codec ID : S_TEXT/UTF8
Codec ID/Info : UTF-8 Plain Text
Duration : 21 min 24 s
Bit rate : 99 b/s
Count of elements : 474
Stream size : 15.6 KiB (0%)
Language : English
Default : No
Forced : No

Text #2
ID : 4
Format : UTF-8
Codec ID : S_TEXT/UTF8
Codec ID/Info : UTF-8 Plain Text
Duration : 21 min 24 s
Bit rate : 102 b/s
Count of elements : 497
Stream size : 16.1 KiB (0%)
Title : SDH
Language : English
Default : No
Forced : No

Menu
00:00:00.000 : en:Chapter 1
00:06:28.004 : en:Chapter 2
00:12:02.018 : en:Chapter 3
00:18:11.001 : en:Chapter 4





Welcome to Flatch S01E07


Welcome to Flatch S01E07


Welcome to Flatch S01E07


Welcome to Flatch S01E07


Welcome to Flatch S01E07

All episodes