Featured TV Shows


Wentworth S05E03

Posted By: Tavaz
1080p (FullHD) / WEB-DL IMDb
Wentworth S05E03

Wentworth S05E03
WEB-DL | MKV | 1920x1080 | English | H265 @ 5308 kbps | E-AC-3 @ 224 kbps | 44 min 52 s | 1.73 GiB
Subtitles: English
Genre: Crime, Drama

Bea Smith is locked up while awaiting trial for the attempted murder of her husband and must learn how life works in prison. A modern adaptation and sequel of the iconic Prisoner series.

Wentworth.S05E03.Nothing.But.the.Truth.1080p.AMZN.WEB-DL.DD2.0.H265-SiGMA.mkv (1.7 GB)



General
Unique ID : 311910499765070431535415022808857709951 (0xEAA7C6F314EFF448A7A2AF3267020D7F)
Complete name : ./Wentworth.S05E03.Nothing.But.the.Truth.1080p.AMZN.WEB-DL.DD2.0.H265-SiGMA.mkv
Format : Matroska
Format version : Version 4 / Version 2
File size : 1.73 GiB
Duration : 44 min 52 s
Overall bit rate : 5 535 kb/s
Encoded date : UTC 2018-09-08 11:19:39
Writing application : mkvmerge v25.0.0 ('Prog Noir') 64-bit
Writing library : libebml v1.3.6 + libmatroska v1.4.9

Video
ID : 1
Format : HEVC
Format/Info : High Efficiency Video Coding
Format profile : Main@L4@Main
Codec ID : V_MPEGH/ISO/HEVC
Duration : 44 min 52 s
Bit rate : 5 308 kb/s
Width : 1 920 pixels
Height : 1 080 pixels
Display aspect ratio : 16:9
Frame rate mode : Constant
Frame rate : 25.000 FPS
Standard : NTSC
Color space : YUV
Chroma subsampling : 4:2:0
Bit depth : 8 bits
Bits/(Pixel*Frame) : 0.102
Stream size : 1.66 GiB (96%)
Default : Yes
Forced : No
Color range : Limited
Color primaries : BT.709
Transfer characteristics : BT.709
Matrix coefficients : BT.709

Audio
ID : 2
Format : E-AC-3
Format/Info : Enhanced Audio Coding 3
Format settings, Endianness : Big
Codec ID : A_EAC3
Duration : 44 min 52 s
Bit rate mode : Constant
Bit rate : 224 kb/s
Channel(s) : 2 channels
Channel positions : Front: L R
Sampling rate : 48.0 kHz
Frame rate : 187.500 FPS (256 SPF)
Compression mode : Lossy
Stream size : 71.9 MiB (4%)
Language : English
Service kind : Complete Main
Default : Yes
Forced : No

Text
ID : 3
Format : UTF-8
Codec ID : S_TEXT/UTF8
Codec ID/Info : UTF-8 Plain Text
Duration : 43 min 29 s
Bit rate : 83 b/s
Count of elements : 716
Stream size : 26.6 KiB (0%)
Title : English (SDH)
Language : English
Default : No
Forced : No





Wentworth S05E03


Wentworth S05E03


Wentworth S05E03


Wentworth S05E03


Wentworth S05E03

All episodes