Featured TV Shows


Wentworth S05E12

Posted By: Tavaz
SD / BDRip IMDb
Wentworth S05E12

Wentworth S05E12
BDRip | MKV | 1024x576 | English | H264 @ 1491 kbps | AC-3 @ 448 kbps | 48 min 28 s | 673 MiB
Subtitles: English
Genre: Crime, Drama

Bea Smith is locked up while awaiting trial for the attempted murder of her husband and must learn how life works in prison. A modern adaptation and sequel of the iconic Prisoner series.

82a0415ffc124bd5a24408f6dedd613d.mkv (673.2 MB)



General
Unique ID : 65518863912210128240368156797857006015 (0x314A7964B7A86EE0F4AAB5E6C5A981BF)
Complete name : ./82a0415ffc124bd5a24408f6dedd613d.mkv
Format : Matroska
Format version : Version 4 / Version 2
File size : 673 MiB
Duration : 48 min 28 s
Overall bit rate : 1 942 kb/s
Encoded date : UTC 2018-09-08 17:41:10
Writing application : mkvmerge v22.0.0 ('At The End Of The World') 64-bit
Writing library : libebml v1.3.5 + libmatroska v1.4.8 / Lavf56.40.101

Video
ID : 1
Format : AVC
Format/Info : Advanced Video Codec
Format profile : High@L4.1
Format settings : CABAC / 14 Ref Frames
Format settings, CABAC : Yes
Format settings, RefFrames : 14 frames
Codec ID : V_MPEG4/ISO/AVC
Duration : 48 min 28 s
Bit rate : 1 492 kb/s
Width : 1 024 pixels
Height : 576 pixels
Display aspect ratio : 16:9
Frame rate mode : Variable
Frame rate : 25.000 FPS
Color space : YUV
Chroma subsampling : 4:2:0
Bit depth : 8 bits
Scan type : Progressive
Bits/(Pixel*Frame) : 0.101
Stream size : 517 MiB (77%)
Writing library : x264 core 148 r2643 5c65704
Encoding settings : cabac=1 / ref=14 / deblock=1:-3:-3 / analyse=0x3:0x133 / me=umh / subme=10 / psy=1 / psy_rd=1.00:0.15 / mixed_ref=1 / me_range=24 / chroma_me=1 / trellis=2 / 8x8dct=1 / cqm=0 / deadzone=21,11 / fast_pskip=0 / chroma_qp_offset=-3 / threads=12 / lookahead_threads=2 / sliced_threads=0 / nr=0 / decimate=1 / interlaced=0 / bluray_compat=0 / constrained_intra=0 / bframes=8 / b_pyramid=2 / b_adapt=2 / b_bias=0 / direct=3 / weightb=1 / open_gop=0 / weightp=2 / keyint=250 / keyint_min=25 / scenecut=40 / intra_refresh=0 / rc_lookahead=60 / rc=crf / mbtree=1 / crf=18.0 / qcomp=0.60 / qpmin=0 / qpmax=69 / qpstep=4 / ip_ratio=1.40 / aq=1:1.00
Default : No
Forced : No

Audio
ID : 2
Format : AC-3
Format/Info : Audio Coding 3
Format settings, Endianness : Big
Codec ID : A_AC3
Duration : 48 min 28 s
Bit rate mode : Constant
Bit rate : 448 kb/s
Channel(s) : 2 channels
Channel positions : Front: L R
Sampling rate : 48.0 kHz
Frame rate : 31.250 FPS (1536 SPF)
Bit depth : 16 bits
Compression mode : Lossy
Stream size : 155 MiB (23%)
Writing library : Lavc56.60.100 ac3
Language : English
Service kind : Complete Main
Default : Yes
Forced : No

Text
ID : 3
Format : UTF-8
Codec ID : S_TEXT/UTF8
Codec ID/Info : UTF-8 Plain Text
Duration : 47 min 25 s
Bit rate : 52 b/s
Count of elements : 571
Stream size : 18.2 KiB (0%)
Title : English
Language : English
Default : No
Forced : No

Menu





Wentworth S05E12


Wentworth S05E12


Wentworth S05E12


Wentworth S05E12


Wentworth S05E12

All episodes