Featured TV Shows


Wentworth S06E02

Posted By: Tavaz
720p (HD) / HDTV IMDb
Wentworth S06E02

Wentworth S06E02
HDTV | MKV | 1280x720 | English | H264 @ 2729 kbps | AAC @ 118 kbps | 48 min 23 s | 986 MiB
Genre: Drama

Bea Smith is locked up while awaiting trial for the attempted murder of her husband and must learn how life works in prison. A modern adaptation and sequel of the iconic Prisoner series.

85c766c9222942599c5d7d1d5119bdce.mkv (986.5 MB)



General
Unique ID : 45832673646595297993155257089151137346 (0x227B0D46BEADB50E59A9100C753AF642)
Complete name : ./85c766c9222942599c5d7d1d5119bdce.mkv
Format : Matroska
Format version : Version 2
File size : 986 MiB
Duration : 48 min 23 s
Overall bit rate : 2 850 kb/s
Encoded date : UTC 2018-06-27 08:06:21
Writing application : mkvmerge v24.0.0 ('Beyond The Pale') 64-bit
Writing library : libebml v1.3.6 + libmatroska v1.4.9

Video
ID : 1
Format : AVC
Format/Info : Advanced Video Codec
Format profile : High@L4.1
Format settings : CABAC / 5 Ref Frames
Format settings, CABAC : Yes
Format settings, RefFrames : 5 frames
Codec ID : V_MPEG4/ISO/AVC
Duration : 48 min 23 s
Bit rate : 2 729 kb/s
Width : 1 280 pixels
Height : 720 pixels
Display aspect ratio : 16:9
Frame rate mode : Constant
Frame rate : 25.000 FPS
Color space : YUV
Chroma subsampling : 4:2:0
Bit depth : 8 bits
Scan type : Progressive
Bits/(Pixel*Frame) : 0.118
Stream size : 945 MiB (96%)
Writing library : x264 core 155 r2901 7d0ff22
Encoding settings : cabac=1 / ref=5 / deblock=1:0:0 / analyse=0x3:0x113 / me=umh / subme=8 / psy=1 / psy_rd=1.00:0.00 / mixed_ref=1 / me_range=16 / chroma_me=1 / trellis=2 / 8x8dct=1 / cqm=0 / deadzone=21,11 / fast_pskip=1 / chroma_qp_offset=-2 / threads=12 / lookahead_threads=2 / sliced_threads=0 / nr=0 / decimate=1 / interlaced=0 / bluray_compat=0 / constrained_intra=0 / bframes=3 / b_pyramid=2 / b_adapt=2 / b_bias=0 / direct=3 / weightb=1 / open_gop=0 / weightp=2 / keyint=250 / keyint_min=25 / scenecut=40 / intra_refresh=0 / rc_lookahead=50 / rc=crf / mbtree=1 / crf=18.0 / qcomp=0.60 / qpmin=0 / qpmax=69 / qpstep=4 / ip_ratio=1.40 / aq=1:1.00
Default : Yes
Forced : No
Color range : Limited
Matrix coefficients : BT.709

Audio
ID : 2
Format : AAC
Format/Info : Advanced Audio Codec
Format profile : LC
Codec ID : A_AAC-2
Duration : 48 min 23 s
Bit rate : 118 kb/s
Channel(s) : 2 channels
Channel positions : Front: L R
Sampling rate : 44.1 kHz
Frame rate : 43.066 FPS (1024 SPF)
Compression mode : Lossy
Delay relative to video : 10 ms
Stream size : 41.0 MiB (4%)
Language : English
Default : Yes
Forced : No





Wentworth S06E02


Wentworth S06E02


Wentworth S06E02


Wentworth S06E02


Wentworth S06E02

All episodes