Featured TV Shows


Wentworth S06E02

Posted By: Tavaz
1080p (FullHD) / WEBRip IMDb
Wentworth S06E02

Wentworth S06E02
WEBRip | MKV | 1920x1080 | English | H264 @ 9810 kbps | AAC @ 192 kbps | 48 min 25 s | 3.38 GiB
Genre: Drama

Bea Smith is locked up while awaiting trial for the attempted murder of her husband and must learn how life works in prison. A modern adaptation and sequel of the iconic Prisoner series.

3ab2a619ca63463face307da35eafd18.mkv (3.4 GB)



General
Unique ID : 267829700185281328553881183130267675973 (0xC97E1FBBBB52C2546674C56F9AAFED45)
Complete name : ./3ab2a619ca63463face307da35eafd18.mkv
Format : Matroska
Format version : Version 4 / Version 2
File size : 3.38 GiB
Duration : 48 min 25 s
Overall bit rate : 10.0 Mb/s
Encoded date : UTC 2018-06-27 05:44:07
Writing application : mkvmerge v20.0.0 ('I Am The Sun') 64-bit
Writing library : libebml v1.3.5 + libmatroska v1.4.8

Video
ID : 1
Format : AVC
Format/Info : Advanced Video Codec
Format profile : Baseline@L4
Format settings : 1 Ref Frames
Format settings, CABAC : No
Format settings, RefFrames : 1 frame
Format settings, GOP : M=1, N=50
Codec ID : V_MPEG4/ISO/AVC
Duration : 48 min 25 s
Bit rate : 9 811 kb/s
Width : 1 920 pixels
Height : 1 080 pixels
Display aspect ratio : 16:9
Frame rate mode : Constant
Frame rate : 25.000 FPS
Color space : YUV
Chroma subsampling : 4:2:0
Bit depth : 8 bits
Scan type : Progressive
Bits/(Pixel*Frame) : 0.189
Stream size : 3.32 GiB (98%)
Language : English
Default : Yes
Forced : No

Audio
ID : 2
Format : AAC
Format/Info : Advanced Audio Codec
Format profile : LC
Codec ID : A_AAC-2
Duration : 48 min 25 s
Bit rate : 192 kb/s
Channel(s) : 2 channels
Channel positions : Front: L R
Sampling rate : 48.0 kHz
Frame rate : 46.875 FPS (1024 SPF)
Compression mode : Lossy
Stream size : 65.6 MiB (2%)
Language : English
Default : Yes
Forced : No





Wentworth S06E02


Wentworth S06E02


Wentworth S06E02


Wentworth S06E02


Wentworth S06E02

All episodes